Падение Ордена / Knightfall [S01] (2017) WEBRip 720p | OmskBird

Ответить на тему
Статистика раздачи
Размер:  9,76 GB   |    Зарегистрирован:  7 месяцев 14 дней   |    Скачан:  0 раз

Полного источника не было: 6 месяцев 3 дня

 
     
 
 
 
Автор Сообщение

Grandfather61 ®

Пол: Мужской

Стаж: 1 год 2 месяца

Сообщений: 583

Создавать темы 07-Дек-2017 19:05

[Цитировать]


Информация о фильме
Название: Падение Ордена
Оригинальное название: Knightfall
Год выхода: 2017
Жанр: боевик, драма, военный, приключения
Режиссер: Дуглас Маккиннон, Метин Хусейн, Дэвид Петрарка
В ролях: Том Каллен, Падрейк Делани, Саймон Мерреллс, Оливия Росс, Джулиан Овенден, Эд Стоппард, Сабрина Бартлетт, Бобби Шофилд, Сара-Софи Бусснина, Нассер Мемарзиа и другие.
О фильме:
Действие сериала разворачивается вокруг самой драгоценной и загадочной реликвии христианства — Святого Грааля, бесследно утерянного в результате падения города Акры, последнего оплота тамплиеров. Существование Ордена теперь под угрозой и зависит от того, будет ли найден Кубок Христа. На поиски Грааля отправляется предводитель тамплиеров — храбрый воин сэр Лэндри, чтобы помешать уничтожению Ордена.

Страна: США, A+E Studios, Midnight Radio, Stillking Films
Продолжительность: ~ 00:44:00 серия
Перевод: Любительский (многоголосый закадровый) OmskBird
Файл
Кодек: MPEG-4 AVC/H.264
Качество: WEBRip 720p
Видео: ~3000 Кбит/сек, 1280x720 (1.778), 23.976 кадр/сек
Звук:
Аудио rus: AC-3, 2 ch, 48,0 КГц, 192 Кбит/сек - OmskBird
Субтитры: отсутствуют
Реклама: присутствуют вставки рекламы
Семпл

Релиз

Релиз-группа: OmskBird
Перевод: Екатерина Полева
Роли озвучивали: Андрей Стакионис, Павел Ярощик, Семён Ващенко, Екатерина Кабашова
Звукорежиссер: Павел Квентов
Постер: Ксения Просветова
Раздача с рекламными вставками

MediaInfo

General
Complete name : G:FilmsKnightfall.S01.720p.WEBRip.OmskBirdKnightfall.S01E01.720p.WEBRip.OmskBird.mp4
Format : MPEG-4
Format profile : Base Media
Codec ID : isom (isom)
File size : 1 013 MiB
Duration : 44mn 57s
Overall bit rate : 3 149 Kbps
Encoded date : UTC 2017-12-07 16:41:55
Tagged date : UTC 2017-12-07 16:41:55
Writing application : Yamb 2.1.0.0 [http://yamb.unite-video.com]
Video
ID : 1
Format : AVC
Format/Info : Advanced Video Codec
Format profile : Main@L3.2
Format settings, CABAC : Yes
Format settings, ReFrames : 3 frames
Codec ID : avc1
Codec ID/Info : Advanced Video Coding
Duration : 44mn 57s
Bit rate : 2 955 Kbps
Maximum bit rate : 6 420 Kbps
Width : 1 280 pixels
Height : 720 pixels
Display aspect ratio : 16:9
Frame rate mode : Constant
Frame rate : 23.976 (24000/1001) fps
Standard : PAL
Color space : YUV
Chroma subsampling : 4:2:0
Bit depth : 8 bits
Scan type : Progressive
Bits/(Pixel*Frame) : 0.134
Stream size : 950 MiB (94%)
Language : English
Encoded date : UTC 2017-12-07 10:13:43
Tagged date : UTC 2017-12-07 16:42:14
Color range : Limited
Color primaries : BT.709
Transfer characteristics : BT.709
Matrix coefficients : BT.709
Audio
ID : 2
Format : AC-3
Format/Info : Audio Coding 3
Mode extension : CM (complete main)
Format settings, Endianness : Big
Codec ID : ac-3
Duration : 44mn 57s
Bit rate mode : Constant
Bit rate : 192 Kbps
Channel(s) : 2 channels
Channel positions : Front: L R
Sampling rate : 48.0 KHz
Frame rate : 31.250 fps (1536 spf)
Bit depth : 16 bits
Compression mode : Lossy
Stream size : 61.7 MiB (6%)
Encoded date : UTC 2017-12-07 16:42:13
Tagged date : UTC 2017-12-07 16:42:14

Скриншоты

[/screens]

Внимание! Раздача ведётся путём добавления новых серий.

Внимание! Раздача ведётся путём добавления новых серий; при каждом добавлении создётся новый торрент. Чтобы начать докачку новой серии, пользователям необходимо сделать следующее:
Остановить скачивание.
Удалить старый торрент у себя из клиента (старые серии удалять не надо).
Скачать новый торрент и запустить его у себя в клиенте вместо старого, при этом указать клиенту путь в старую папку куда и должно происходить скачивание новых серий.
Ваш клиент при этом должен произвести хеширование (проверку) старой папки (если не производит сам - помогите ему сделать это), и будет докачивать только те серии которых у вас ещё нет. Старые серии при этом не удаляются, а продолжают раздаваться!
Eсли вы уже удалили старые серии, то предотвратить повторную закачку старых серий можно, отжав галочку в соответсвующих местах при запуске нового торрента. По возможности, желательно не удалять старые серии как можно дольше чтобы релизёр не столько продолжал раздавать старые серии, а смог сконцентрироваться на новых.
Релиз от: OmskBird
[freetreker.nl].t306.torrent 
Торрент: Зарегистрирован [ 2018-02-09 09:45 ] · 7711482FED375584F484E97C665FB827657818A7

Скачать .torrent

Скачать

26 KB

Статус: проверено
Скачан: 0 раз
Размер: 9,76 GB
terms.php
Похожие темы:


Последний раз редактировалось: Grandfather61 (2018-02-09 09:45), всего редактировалось 8 раз(а)
[Профиль] [ЛС]

Grandfather61 ®

Пол: Мужской

Стаж: 1 год 2 месяца

Сообщений: 583

Создавать темы 09-Фев-2018 09:45 (спустя 2 месяца 1 день)

[Цитировать]

Добавлена 10-я серия
[Профиль] [ЛС]
Показать сообщения:    
Ответить на тему

Текущее время: 23-Сен 14:14

Часовой пояс: UTC ± 0



Вы не можете начинать темы
Вы не можете отвечать на сообщения
Вы не можете редактировать свои сообщения
Вы не можете удалять свои сообщения
Вы не можете голосовать в опросах
Вы не можете прикреплять файлы к сообщениям
Вы можете скачивать файлы