Дюнкерк / Dunkirk (2017) BDRip 1080p | Paradox&Omskbird

Ответить на тему
Статистика раздачи
Размер:  8,57 GB   |    Зарегистрирован:  4 месяца 18 дней   |    Скачан:  0 раз

Полного источника не было: 4 часа

 
     
 
 
 
Автор Сообщение

studio_paradox ®

Пол: Мужской

Стаж: 9 месяцев 17 дней

Сообщений: 15

Создавать темы 08-Дек-2017 12:26

[Цитировать]


Информация о фильме
Название: Дюнкерк
Оригинальное название: Dunkirk
Год выхода: 2017
Жанр: Военный, драма, история
Режиссер: Кристофер Нолан
В ролях: Финн Уайтхед, Том Глинн-Карни, Джек Лауден, Гарри Стайлс, Анейрин Барнард, Джеймс Д`Арси, Барри Кеоган, Кеннет Брана, Киллиан Мёрфи, Марк Райлэнс
О фильме:
Фильм расскажет историю чудесного спасения более трехсот тысяч солдат в ходе Дюнкеркской операции, имевшей место в начале Второй мировой войны. События начинаются с окружения сотен тысяч британских и союзных войск силами противника. Пойманные в ловушку на пляже, и находясь спиной к морю, они сталкиваются лицом к лицу с неразрешимой ситуацией, тем временем как тиски противника сжимаются все сильнее и сильнее.

Страна: Нидерланды, Великобритания, Франция, США
Студия: Canal+ [fr], Ciné, Dombey Street Productions, Kaap Holland Film
Продолжительность: 01:47:15
Перевод: Профессиональный многоголосый [Студия "Paradox" & Omskbird records]
• Перевод: Юлия Мейер
• Роли озвучивали: Максим Максимов, Павел Ярощик, Константин Погодаев, Екатерина Кабашова
• Звукорежиссер: Павел Квентов, Юрий Гамов
Присутствует реклама!
Файл
Кодек: MKV (H.264)
Качество: BDRip 1080p
Видео: MPEG-4 AVC, 9 932 kbps, 1920x1080, 23.976 fps
Звук: Русский: DTS, 6 ch, 1509 Kbps | "Paradox" & Omskbird
Субтитры: Нет
Format : Matroska
Format version : Version 4 / Version 2
File size : 8.57 GiB
Duration : 1 h 47 min
Overall bit rate : 11.4 Mb/s
Encoded date : UTC 2017-12-08 06:45:36
Writing application : mkvmerge v9.3.1 ('Mask Machine') 64bit
Writing library : libebml v1.3.4 + libmatroska v1.4.5
Video
ID : 1
Format : AVC
Format/Info : Advanced Video Codec
Format profile : Main@L5.1
Format settings, CABAC : Yes
Format settings, ReFrames : 1 frame
Codec ID : V_MPEG4/ISO/AVC
Duration : 1 h 47 min
Bit rate : 9 932 kb/s
Width : 1 920 pixels
Height : 1 080 pixels
Display aspect ratio : 16:9
Frame rate mode : Constant
Frame rate : 23.976 (23976/1000) FPS
Color space : YUV
Chroma subsampling : 4:2:0
Bit depth : 8 bits
Scan type : Progressive
Bits/(Pixel*Frame) : 0.200
Stream size : 7.44 GiB (87%)
Default : Yes
Forced : No
Audio
ID : 2
Format : DTS
Format/Info : Digital Theater Systems
Mode : 16
Format settings, Endianness : Big
Codec ID : A_DTS
Duration : 1 h 47 min
Bit rate mode : Constant
Bit rate : 1 509 kb/s
Channel(s) : 6 channels
Channel positions : Front: L C R, Side: L R, LFE
Sampling rate : 48.0 kHz
Frame rate : 93.750 FPS (512 spf)
Bit depth : 24 bits
Compression mode : Lossy
Stream size : 1.13 GiB (13%)
Title : Paradox&Omskbird
Language : Russian
Default : Yes
Forced : Yes
[freetreker.nl].t308.torrent 
 ЗОЛОТАЯ РАЗДАЧА! СКАЧАННОЕ НЕ ЗАСЧИТЫВАЕТСЯ! 
Торрент: Зарегистрирован [ 2017-12-08 12:26 ] · 6A7D1FD0148EBBD095D304506DBF98C3FC0E6D42

Скачать .torrent

Скачать

22 KB

Статус: проверено
Скачан: 0 раз
Размер: 8,57 GB
terms.php
Похожие темы:
[Профиль] [ЛС]
Показать сообщения:    
Ответить на тему

Текущее время: 26-Апр 19:13

Часовой пояс: UTC ± 0



Вы не можете начинать темы
Вы не можете отвечать на сообщения
Вы не можете редактировать свои сообщения
Вы не можете удалять свои сообщения
Вы не можете голосовать в опросах
Вы не можете прикреплять файлы к сообщениям
Вы можете скачивать файлы