Хэппи / Happy! / Сезон 1 / Серии 1-8 (8) (Грант Моррисон) [2017, США, комедия, криминал, детектив, WEBRip 1080p] MVO (OMSKBIRD)

Ответить на тему
Статистика раздачи
Размер:  19,71 GB   |    Зарегистрирован:  7 месяцев 21 день   |    Скачан:  1 раз

Полного источника не было: 5 месяцев 16 дней

 
     
 
 
 
Автор Сообщение

Gater ®

Пол: Не указан

Стаж: 1 год 2 месяца

Сообщений: 1378

Создавать темы 08-Дек-2017 12:36

[Цитировать]

-Хэппи / Happy!- Год выпуска • 2017
Страна • США
Жанр • комедия, криминал, детектив
Продолжительность • ~50 мин.
Перевод
• Профессиональный (многоголосый, закадровый) "OMSKBIRD records"
-Создатель • Грант Моррисон
В ролях • Кристофер Мелони, Рен Колли, Александр Джеймисон, Кэтти Бет Холл, Кэтрин ЛеФрер, Бенджамин Снайдер и др.-Описание • Ник Сакс, вечно пьяный бывший полицейский, становится наёмным убийцей. Он плывёт по течению в мире случайных смертей, секса и предательства. Когда одно из его дел идёт наперекосяк, нетрезвая жизнь Сакса навсегда меняется с появлением крошечного, вечно положительного, воображаемого голубого крылатого коня.-Реклама: Присутствует.
ПРИСУТСТВУЕТ НЕЦЕНЗУРНАЯ ЛЕКСИКА!-
Качество: WEBRip 1080p
Формат: MKV
Видео: MPEG-4 AVC / ~ 4000 kbps / 1920х1080p / 23.976 fps / 16:9 / ~ 0.080 bit/pixel / Main Level 4.0
Аудио:
Русский / Dolby Digital 2.0 / 48 kHz / 192 kbps
English / Dolby Digital 2.0 / 48 kHz / 192 kbps-

- -

MediaInfo


General
Unique ID : 173031020712828135741042930809915067081 (0x822C8FFA17E8CBF080CE930101BC4AC9)
Complete name : H:\Мои Документы\Видео\РАЗДАЧИ\Хэппи\Happy S01 WEBRip 1080p (OMSKBIRD)\Happy S01E01 WEBRip 1080p (OMSKBIRD).mkv
Format : Matroska
Format version : Version 2
File size : 1.38 GiB
Duration : 44 min 10 s
Overall bit rate : 4 488 kb/s
Encoded date : UTC 2017-12-08 12:23:59
Writing application : mkvmerge v4.0.0 ('The Stars were mine') сборка от Jun 6 2010 16:18:42
Writing library : libebml v1.0.0 + libmatroska v1.0.0
Video
ID : 1
Format : AVC
Format/Info : Advanced Video Codec
Format profile : Main@L4
Format settings, CABAC : Yes
Format settings, RefFrames : 1 frame
Format settings, GOP : M=1, N=48
Codec ID : V_MPEG4/ISO/AVC
Duration : 44 min 10 s
Bit rate : 4 096 kb/s
Width : 1 920 pixels
Height : 1 080 pixels
Display aspect ratio : 16:9
Frame rate mode : Constant
Frame rate : 23.976 (24000/1001) FPS
Color space : YUV
Chroma subsampling : 4:2:0
Bit depth : 8 bits
Scan type : Progressive
Bits/(Pixel*Frame) : 0.082
Stream size : 1.24 GiB (89%)
Writing library : x264 core 120
Encoding settings : cabac=1 / ref=1 / deblock=1:0:0 / analyse=0x1:0x111 / me=hex / subme=6 / psy=1 / psy_rd=1.00:0.00 / mixed_ref=0 / me_range=16 / chroma_me=0 / trellis=1 / 8x8dct=0 / cqm=0 / deadzone=21,11 / fast_pskip=1 / chroma_qp_offset=-2 / threads=8 / sliced_threads=0 / nr=0 / decimate=1 / interlaced=0 / bluray_compat=0 / constrained_intra=0 / bframes=0 / weightp=2 / keyint=48 / keyint_min=25 / scenecut=0 / intra_refresh=0 / rc=abr / mbtree=0 / bitrate=4096 / ratetol=1.0 / qcomp=0.60 / qpmin=10 / qpmax=51 / qpstep=4 / ip_ratio=1.40 / aq=1:1.00
Default : No
Forced : No
Audio #1
ID : 2
Format : AC-3
Format/Info : Audio Coding 3
Format settings, Endianness : Big
Codec ID : A_AC3
Duration : 44 min 10 s
Bit rate mode : Constant
Bit rate : 192 kb/s
Channel(s) : 2 channels
Channel positions : Front: L R
Sampling rate : 48.0 kHz
Frame rate : 31.250 FPS (1536 SPF)
Bit depth : 16 bits
Compression mode : Lossy
Stream size : 60.7 MiB (4%)
Language : Russian
Service kind : Complete Main
Default : Yes
Forced : No
Audio #2
ID : 3
Format : AC-3
Format/Info : Audio Coding 3
Format settings, Endianness : Big
Codec ID : A_AC3
Duration : 44 min 10 s
Bit rate mode : Constant
Bit rate : 192 kb/s
Channel(s) : 2 channels
Channel positions : Front: L R
Sampling rate : 48.0 kHz
Frame rate : 31.250 FPS (1536 SPF)
Bit depth : 16 bits
Compression mode : Lossy
Stream size : 60.7 MiB (4%)
Language : English
Service kind : Complete Main
Default : No
Forced : No
[freetreker.nl].t309.torrent 
Торрент: Зарегистрирован [ 2018-02-02 10:58 ] · DA234249BE7512BAFF7A46203EE0E122BF96C488

Скачать .torrent

Скачать

50 KB

Статус: проверено
Скачан: 1 раз
Размер: 19,71 GB
terms.php
Похожие темы:


Последний раз редактировалось: Gater (2018-02-02 10:58), всего редактировалось 6 раз(а)
[Профиль] [ЛС]

Gater ®

Пол: Не указан

Стаж: 1 год 2 месяца

Сообщений: 1378

Создавать темы 15-Дек-2017 07:54 (спустя 6 дней)

[Цитировать]

+2
[Профиль] [ЛС]

Gater ®

Пол: Не указан

Стаж: 1 год 2 месяца

Сообщений: 1378

Создавать темы 22-Дек-2017 11:31 (спустя 7 дней)

[Цитировать]

+3
[Профиль] [ЛС]

Gater ®

Пол: Не указан

Стаж: 1 год 2 месяца

Сообщений: 1378

Создавать темы 29-Дек-2017 05:14 (спустя 6 дней)

[Цитировать]

+4
[Профиль] [ЛС]

Gater ®

Пол: Не указан

Стаж: 1 год 2 месяца

Сообщений: 1378

Создавать темы 12-Янв-2018 11:20 (спустя 14 дней)

[Цитировать]

+5
[Профиль] [ЛС]

Gater ®

Пол: Не указан

Стаж: 1 год 2 месяца

Сообщений: 1378

Создавать темы 19-Янв-2018 16:09 (спустя 7 дней)

[Цитировать]

+6
[Профиль] [ЛС]

Gater ®

Пол: Не указан

Стаж: 1 год 2 месяца

Сообщений: 1378

Создавать темы 26-Янв-2018 15:43 (спустя 6 дней)

[Цитировать]

+7
[Профиль] [ЛС]

Gater ®

Пол: Не указан

Стаж: 1 год 2 месяца

Сообщений: 1378

Создавать темы 02-Фев-2018 11:00 (спустя 6 дней)

[Цитировать]

+8
ФИНАЛ СЕЗОНА.
[Профиль] [ЛС]
Показать сообщения:    
Ответить на тему

Текущее время: 23-Сен 14:16

Часовой пояс: UTC ± 0



Вы не можете начинать темы
Вы не можете отвечать на сообщения
Вы не можете редактировать свои сообщения
Вы не можете удалять свои сообщения
Вы не можете голосовать в опросах
Вы не можете прикреплять файлы к сообщениям
Вы можете скачивать файлы