Хэппи / Happy! / Сезон 1 / Серии 1-8 (8) (Грант Моррисон) [2017, США, комедия, криминал, детектив, WEBRip] MVO (OMSKBIRD)

Ответить на тему
Статистика раздачи
Размер:  4,78 GB   |    Зарегистрирован:  2 месяца 24 дня   |    Скачан:  1 раз

Полного источника не было: 2 месяца 2 дня

 
     
 
 
 
Автор Сообщение

Gater ®

Пол: Не указан

Стаж: 9 месяцев 17 дней

Сообщений: 972

Создавать темы 08-Дек-2017 12:37

[Цитировать]

-Хэппи / Happy!- Год выпуска • 2017
Страна • США
Жанр • комедия, криминал, детектив
Продолжительность • ~50 мин.
Перевод
• Профессиональный (многоголосый, закадровый) "OMSKBIRD records"
-Создатель • Грант Моррисон
В ролях • Кристофер Мелони, Рен Колли, Александр Джеймисон, Кэтти Бет Холл, Кэтрин ЛеФрер, Бенджамин Снайдер и др.-Описание • Ник Сакс, вечно пьяный бывший полицейский, становится наёмным убийцей. Он плывёт по течению в мире случайных смертей, секса и предательства. Когда одно из его дел идёт наперекосяк, нетрезвая жизнь Сакса навсегда меняется с появлением крошечного, вечно положительного, воображаемого голубого крылатого коня.-Реклама: Присутствует.
ПРИСУТСТВУЕТ НЕЦЕНЗУРНАЯ ЛЕКСИКА!-
Качество: WEBRip
Формат: AVI
Видео: Xvid / ~ 1800 kbps / 720х400p / 23.976 fps / 16:9
Аудио:
Русский / Dolby Digital 2.0 / 48 kHz / 192 kbps-

- -

MediaInfo


General
Complete name : H:\Мои Документы\Видео\РАЗДАЧИ\Хэппи\Happy S01 WEBRip (OMSKBIRD)\Happy S01E01 WEBRip (OMSKBIRD).avi
Format : AVI
Format/Info : Audio Video Interleave
File size : 638 MiB
Duration : 44 min 47 s
Overall bit rate : 1 991 kb/s
Writing application : VirtualDubMod 1.5.10.3 | www.virtualdub-fr.org || (build 2550/release)
Writing library : VirtualDubMod build 2550/release
Video
ID : 0
Format : MPEG-4 Visual
Format profile : Advanced Simple@L5
Format settings, BVOP : 1
Format settings, QPel : No
Format settings, GMC : No warppoints
Format settings, Matrix : Default (H.263)
Codec ID : XVID
Codec ID/Hint : XviD
Duration : 44 min 47 s
Bit rate : 1 789 kb/s
Width : 720 pixels
Height : 400 pixels
Display aspect ratio : 16:9
Frame rate : 23.976 (24000/1001) FPS
Color space : YUV
Chroma subsampling : 4:2:0
Bit depth : 8 bits
Scan type : Progressive
Compression mode : Lossy
Bits/(Pixel*Frame) : 0.259
Stream size : 573 MiB (90%)
Writing library : XviD 67
Audio
ID : 1
Format : AC-3
Format/Info : Audio Coding 3
Format settings, Endianness : Big
Codec ID : 2000
Duration : 44 min 47 s
Bit rate mode : Constant
Bit rate : 192 kb/s
Channel(s) : 2 channels
Channel positions : Front: L R
Sampling rate : 48.0 kHz
Frame rate : 31.250 FPS (1536 SPF)
Bit depth : 16 bits
Compression mode : Lossy
Stream size : 61.5 MiB (10%)
Alignment : Split accross interleaves
Interleave, duration : 42 ms (1.00 video frame)
Interleave, preload duratio : 500 ms
Service kind : Complete Main
[freetreker.nl].t310.torrent 
Торрент: Зарегистрирован [ 2018-02-02 10:59 ] · 65565C333F46824B19580387C7CD1737A1EB701C

Скачать .torrent

Скачать

13 KB

Статус: проверено
Скачан: 1 раз
Размер: 4,78 GB
terms.php
Похожие темы:


Последний раз редактировалось: Gater (2018-02-02 10:59), всего редактировалось 6 раз(а)
[Профиль] [ЛС]

Gater ®

Пол: Не указан

Стаж: 9 месяцев 17 дней

Сообщений: 972

Создавать темы 15-Дек-2017 07:54 (спустя 6 дней)

[Цитировать]

+2
[Профиль] [ЛС]

Gater ®

Пол: Не указан

Стаж: 9 месяцев 17 дней

Сообщений: 972

Создавать темы 22-Дек-2017 11:31 (спустя 7 дней)

[Цитировать]

+3
[Профиль] [ЛС]

Gater ®

Пол: Не указан

Стаж: 9 месяцев 17 дней

Сообщений: 972

Создавать темы 29-Дек-2017 05:14 (спустя 6 дней)

[Цитировать]

+4
[Профиль] [ЛС]

Gater ®

Пол: Не указан

Стаж: 9 месяцев 17 дней

Сообщений: 972

Создавать темы 12-Янв-2018 11:21 (спустя 14 дней)

[Цитировать]

+5
[Профиль] [ЛС]

Gater ®

Пол: Не указан

Стаж: 9 месяцев 17 дней

Сообщений: 972

Создавать темы 19-Янв-2018 16:09 (спустя 7 дней)

[Цитировать]

+6
[Профиль] [ЛС]

Gater ®

Пол: Не указан

Стаж: 9 месяцев 17 дней

Сообщений: 972

Создавать темы 26-Янв-2018 15:44 (спустя 6 дней)

[Цитировать]

+7
[Профиль] [ЛС]

Gater ®

Пол: Не указан

Стаж: 9 месяцев 17 дней

Сообщений: 972

Создавать темы 02-Фев-2018 11:00 (спустя 6 дней)

[Цитировать]

+8
ФИНАЛ СЕЗОНА.
[Профиль] [ЛС]
Показать сообщения:    
Ответить на тему

Текущее время: 26-Апр 19:22

Часовой пояс: UTC ± 0



Вы не можете начинать темы
Вы не можете отвечать на сообщения
Вы не можете редактировать свои сообщения
Вы не можете удалять свои сообщения
Вы не можете голосовать в опросах
Вы не можете прикреплять файлы к сообщениям
Вы можете скачивать файлы