Умираю со смеху / I'm Dying Up Here / Сезон: 1 / Серии: 1-10 из 10 (Адам Дэвидсон, Иэн Б. МакДональд) [2017, США, Драма, комедия, WEBRip 1080p] MVO (OmskBird) Original

Ответить на тему
Статистика раздачи
Размер:  24,06 GB   |    Зарегистрирован:  11 месяцев 3 дня   |    Скачан:  0 раз

Полного источника не было: 8 месяцев 28 дней

 
     
 
 
 
Автор Сообщение

Grandfather61 ®

Пол: Мужской

Стаж: 1 год

Сообщений: 558

Создавать темы 21-Июл-2017 02:55

[Цитировать]

-- Умираю со смеху / I'm Dying Up Here -- Год выпуска: 2017
Страна: США
Жанр: Драма, комедия
Продолжительность: ~ 01:00:00-Перевод: Профессиональный (многоголосый закадровый) OmskBird-Режиссёр: Адам Дэвидсон, Иэн Б. МакДональд
В ролях: Мелисса Лео, Майкл Ангарано, Аль Адригал, Эри Грейнор, Кларк Дьюк, АрДжей Сайлер, Эндрю Сантино, Эрик Гриффин, Стефен Джуарино, Джон Дэйли и др.-Описание: История завсегдатаев комедийного клуба в Лос-Анджелесе 1970-х.-Доп. информация:
Релиз-группа:
Перевод: Олег Осокин
Роли озвучивали: Алена Соколова, Павел Ярощик, Станислав Черсков
Звукорежиссер: Павел Квентов
Постер: Ксения Просветова- -Ссылка на предыдущие и альтернативные раздачи: http://freetreker.nl/tracker.php?max=1&to=1&...+m+Dying+Up+Here-Качество: WEBRip1080p
Контейнер: MKV
Видео: H.264, 1920x1080 (16:9), 23.976 fps, ~5000 Mbps, 0.102 bit/pixel
Аудио # rus: AC3, 48 kHz, 6 ch, 384 kbps
Аудио # eng: AC3, 48 kHz, 6 ch, 384 kbps
Субтитры: Английские
Реклама:
присутствуют аудио вставки рекламы (в начале и в конце по 10 сек.)

Список серий

01. Pilot
02. Midnight Special
03. The Cost of a Free Buffet
04. Sugar and Spice
05. Умираю со смеху
06. Girls Are Funny, Too
07. My Rifle, My Pony and Me
08. The Unbelievable Power of Believing
09. Lingchi
10. Creative Indifferences

MediaInfo

General
Unique ID : 237997392210802919559924100528287424828 (0xB30CA164278B22EE917E2502330EA13C)
Complete name : G:\Films\Im.Dying.Up.Here.S01.1080p.WEBRip.OmskBird\Im.Dying.Up.Here.S01E01.1080p.WEBRip.OmskBird.mkv
Format : Matroska
Format version : Version 4 / Version 2
File size : 2.47 GiB
Duration : 1h 0mn
Overall bit rate : 5 819 Kbps
Encoded date : UTC 2017-06-06 11:07:18
Writing application : mkvmerge v12.0.0 ('Trust / Lust') 64bit
Writing library : libebml v1.3.4 + libmatroska v1.4.5
Cover : Yes
Attachments : small_cover.jpg / small_cover_land.jpg / cover.jpg / cover_land.jpg
Video
ID : 1
Format : AVC
Format/Info : Advanced Video Codec
Format profile : High@L4.1
Format settings, CABAC : Yes
Format settings, ReFrames : 4 frames
Codec ID : V_MPEG4/ISO/AVC
Duration : 1h 0mn
Bit rate : 5 050 Kbps
Width : 1 920 pixels
Height : 1 080 pixels
Display aspect ratio : 16:9
Frame rate mode : Constant
Frame rate : 23.976 (24000/1001) fps
Color space : YUV
Chroma subsampling : 4:2:0
Bit depth : 8 bits
Scan type : Progressive
Bits/(Pixel*Frame) : 0.102
Stream size : 2.14 GiB (87%)
Writing library : x264 core 146 r2538 121396c
Encoding settings : cabac=1 / ref=4 / deblock=1:-3:-3 / analyse=0x3:0x10 / me=umh / subme=10 / psy=1 / psy_rd=0.90:0.00 / mixed_ref=1 / me_range=48 / chroma_me=1 / trellis=2 / 8x8dct=1 / cqm=0 / deadzone=21,11 / fast_pskip=1 / chroma_qp_offset=-4 / threads=12 / lookahead_threads=2 / sliced_threads=0 / nr=0 / decimate=1 / interlaced=0 / bluray_compat=0 / constrained_intra=0 / bframes=8 / b_pyramid=2 / b_adapt=2 / b_bias=0 / direct=3 / weightb=1 / open_gop=0 / weightp=1 / keyint=250 / keyint_min=23 / scenecut=40 / intra_refresh=0 / rc=2pass / mbtree=0 / bitrate=5050 / ratetol=1.0 / qcomp=0.60 / qpmin=8 / qpmax=69 / qpstep=4 / cplxblur=20.0 / qblur=0.5 / ip_ratio=1.30 / pb_ratio=1.28 / aq=1:1.00
Language : English
Default : Yes
Forced : No
Color range : Limited
Color primaries : BT.709
Transfer characteristics : BT.709
Matrix coefficients : BT.709
Audio #1
ID : 2
Format : AC-3
Format/Info : Audio Coding 3
Mode extension : CM (complete main)
Format settings, Endianness : Big
Codec ID : A_AC3
Duration : 1h 0mn
Bit rate mode : Constant
Bit rate : 384 Kbps
Channel(s) : 6 channels
Channel positions : Front: L C R, Side: L R, LFE
Sampling rate : 48.0 KHz
Frame rate : 31.250 fps (1536 spf)
Compression mode : Lossy
Stream size : 167 MiB (7%)
Title : OmskBird 5.1
Language : Russian
Default : Yes
Forced : No
Audio #2
ID : 3
Format : AC-3
Format/Info : Audio Coding 3
Mode extension : CM (complete main)
Format settings, Endianness : Big
Codec ID : A_AC3
Duration : 1h 0mn
Bit rate mode : Constant
Bit rate : 384 Kbps
Channel(s) : 6 channels
Channel positions : Front: L C R, Side: L R, LFE
Sampling rate : 48.0 KHz
Frame rate : 31.250 fps (1536 spf)
Compression mode : Lossy
Stream size : 167 MiB (7%)
Title : eng
Language : English
Default : No
Forced : No
Text
ID : 4
Format : UTF-8
Codec ID : S_TEXT/UTF8
Codec ID/Info : UTF-8 Plain Text
Duration : 58mn 48s
Bit rate : 94 bps
Count of elements : 1351
Stream size : 40.9 KiB (0%)
Title : eng
Language : English
Default : No
Forced : No

Скриншоты

Внимание! Раздача ведётся путём добавления новых серий.

Внимание! Раздача ведётся путём добавления новых серий; при каждом добавлении создётся новый торрент. Чтобы начать докачку новой серии, пользователям необходимо сделать следующее:
Остановить скачивание.
Удалить старый торрент у себя из клиента (старые серии удалять не надо).
Скачать новый торрент и запустить его у себя в клиенте вместо старого, при этом указать клиенту путь в старую папку куда и должно происходить скачивание новых серий.
Ваш клиент при этом должен произвести хеширование (проверку) старой папки (если не производит сам - помогите ему сделать это), и будет докачивать только те серии которых у вас ещё нет. Старые серии при этом не удаляются, а продолжают раздаваться!
Eсли вы уже удалили старые серии, то предотвратить повторную закачку старых серий можно, отжав галочку в соответсвующих местах при запуске нового торрента. По возможности, желательно не удалять старые серии как можно дольше чтобы релизёр не столько продолжал раздавать старые серии, а смог сконцентрироваться на новых.
Раздача обновлена. Добавлена 10-я серия. Приятного просмотра!
[freetreker.nl].t34.torrent 
 ЗОЛОТАЯ РАЗДАЧА! СКАЧАННОЕ НЕ ЗАСЧИТЫВАЕТСЯ! 
Торрент: Зарегистрирован [ 2017-08-16 05:07 ] · B803C753C314F1CD636A48442A52226CBB994651

Скачать .torrent

Скачать

61 KB

Статус: проверено
Скачан: 0 раз
Размер: 24,06 GB
terms.php
Похожие темы:


Последний раз редактировалось: Grandfather61 (2017-08-16 05:07), всего редактировалось 1 раз
[Профиль] [ЛС]

Grandfather61 ®

Пол: Мужской

Стаж: 1 год

Сообщений: 558

Создавать темы 08-Авг-2017 16:59 (спустя 18 дней)

[Цитировать]

Раздача обновлена. Добавлена 9-я серия. Приятного просмотра!
[Профиль] [ЛС]

Grandfather61 ®

Пол: Мужской

Стаж: 1 год

Сообщений: 558

Создавать темы 16-Авг-2017 05:12 (спустя 7 дней)

[Цитировать]

Раздача обновлена. Добавлена 10-я серия. Приятного просмотра!
[Профиль] [ЛС]
Показать сообщения:    
Ответить на тему

Текущее время: 20-Июл 03:15

Часовой пояс: UTC ± 0



Вы не можете начинать темы
Вы не можете отвечать на сообщения
Вы не можете редактировать свои сообщения
Вы не можете удалять свои сообщения
Вы не можете голосовать в опросах
Вы не можете прикреплять файлы к сообщениям
Вы можете скачивать файлы