Путь / The Path / Сезон: 1 / Серии: 1-10 из 10 (Майк Кэхилл, Майкл Уивер) [2016, США, драма, WEBRip] MVO (OMSKBIRD) + Original + Subs (Rus, Eng)

Ответить на тему
Статистика раздачи
Размер:  6,68 GB   |    Зарегистрирован:  1 год   |    Скачан:  0 раз

Полного источника не было: Никогда

 
     
 
 
 
Автор Сообщение

Grandfather61 ®

Пол: Мужской

Стаж: 1 год 5 месяцев

Сообщений: 641

Создавать темы 13-Дек-2017 05:44

[Цитировать]

--Путь / The Path-- Год выпуска: 2016
Страна: США
Жанр: драма
Продолжительность: ~ 00:56:29-Перевод: Любительский (многоголосый закадровый) OMSKBIRD records-Режиссёр: Майк Кэхилл, Майкл Уивер / Mike Cahill, Michael Weaver-В ролях: Хью Дэнси, Аарон Пол, Мишель Монахэн, Али Ан, Питер Фридман, Макс Эрих, Ariana Chantelle Cordero, Кларк Миддлтон, Кайли Вернофф, Уитни Краудер ...-Описание: На севере штата Нью-Йорк появляется неизвестный и загадочный религиозный культ, в самом центре которого оказываются переживающий кризис веры Эдди и его преданная жена Сара, а их неофициальным лидером становится амбициозный Кэл.-Доп. информация:
Релиз-группа:
Релиз подготовил:Grandfather61
Роли озвучивали: Павел Ярощик, Алексей Воленко и Маргарита Сахно
Перевод: Евгений Гачинский
Звукорежиссер: Павел Квентов
Постер: Ксения Просветова
Сборка, работа со звуком, субтитрами: Grandfather61- - -Качество: WEBRip
Контейнер: AVI
Видео: 720x400 (1.80:1), 23.976 fps, XviD build 73 ~1503 kbps avg, 0.22 bit/pixel
Аудио # 1: 48 kHz, MPEG Layer 3, 2 ch, ~192.00 kbps avg - OMSKBIRD records
Аудио # 2: 48 kHz, MPEG Layer 3, 2 ch, ~192.00 kbps avg - original
Субтитры: Русский (OmskBird), английский

Список серий

01. What the Fire Throws
02. The Era of The Way
03. A Homecoming
04. The Future
05. The Hole
06. Breaking and Entering
07. Refugees
08. The Shore
09. A Room with a View
10. The Miracle

MediaInfo

General
Complete name : G:\Films\The.Path.S01.400p.WEBRip.OmskBird\The.Path.S01E01.WEBRip.OmskBird.avi
Format : AVI
Format/Info : Audio Video Interleave
File size : 769 MiB
Duration : 56mn 29s
Overall bit rate : 1 903 Kbps
Writing application : VirtualDubMod 1.5.10.3 (build 2550/release)
Writing library : VirtualDubMod build 2550/release
Video
ID : 0
Format : MPEG-4 Visual
Format profile : Advanced [email protected]
Format settings, BVOP : 1
Format settings, QPel : No
Format settings, GMC : No warppoints
Format settings, Matrix : Default (MPEG)
Codec ID : XVID
Codec ID/Hint : XviD
Duration : 56mn 29s
Bit rate : 1 505 Kbps
Width : 720 pixels
Height : 400 pixels
Display aspect ratio : 16:9
Frame rate : 23.976 (23976/1000) fps
Color space : YUV
Chroma subsampling : 4:2:0
Bit depth : 8 bits
Scan type : Progressive
Compression mode : Lossy
Bits/(Pixel*Frame) : 0.218
Stream size : 608 MiB (79%)
Writing library : XviD 73
Audio #1
ID : 1
Format : MPEG Audio
Format version : Version 1
Format profile : Layer 3
Mode : Joint stereo
Mode extension : MS Stereo
Codec ID : 55
Codec ID/Hint : MP3
Duration : 56mn 29s
Bit rate mode : Constant
Bit rate : 192 Kbps
Channel(s) : 2 channels
Sampling rate : 48.0 KHz
Compression mode : Lossy
Stream size : 77.6 MiB (10%)
Alignment : Aligned on interleaves
Interleave, duration : 42 ms (1.00 video frame)
Interleave, preload duratio : 504 ms
Audio #2
ID : 2
Format : MPEG Audio
Format version : Version 1
Format profile : Layer 3
Mode : Joint stereo
Mode extension : MS Stereo
Codec ID : 55
Codec ID/Hint : MP3
Duration : 56mn 29s
Bit rate mode : Constant
Bit rate : 192 Kbps
Channel(s) : 2 channels
Sampling rate : 48.0 KHz
Compression mode : Lossy
Stream size : 77.6 MiB (10%)
Alignment : Aligned on interleaves
Interleave, duration : 42 ms (1.00 video frame)
Interleave, preload duratio : 504 ms

Скриншоты

[freetreker.nl].t349.torrent 
Торрент: Зарегистрирован [ 2017-12-13 05:44 ] · 79D130BE533579F6C5D44844F34C04182DAC505F

Скачать .torrent

Скачать

20 KB

Статус: проверено
Скачан: 0 раз
Размер: 6,68 GB
terms.php
Похожие темы:
[Профиль] [ЛС]
Показать сообщения:    
Ответить на тему

Текущее время: 19-Дек 03:47

Часовой пояс: UTC ± 0



Вы не можете начинать темы
Вы не можете отвечать на сообщения
Вы не можете редактировать свои сообщения
Вы не можете удалять свои сообщения
Вы не можете голосовать в опросах
Вы не можете прикреплять файлы к сообщениям
Вы можете скачивать файлы