Викинги / Vikings / Сезон: 2 / Серии: 1-10 из 10 (Йохан Ренк, Киаран Доннелли, Кен Джиротти) [2014, Ирландия, Канада, Боевик, драма, история, WEB-DL 720p] MVO (LostFilm) + Original

Ответить на тему
Статистика раздачи
Размер:  13,68 GB   |    Зарегистрирован:  11 месяцев   |    Скачан:  0 раз

Полного источника не было: 8 месяцев 28 дней

 
     
 
 
 
Автор Сообщение

Grandfather61 ®

Пол: Мужской

Стаж: 1 год

Сообщений: 558

Создавать темы 21-Июл-2017 07:31

[Цитировать]

--Викинги / Vikings-- Год выпуска: 2014
Страна: Ирландия, Канада
Жанр: Боевик, драма, история
Продолжительность: ~ 00:44:08
Перевод: Профессиональный (многоголосый закадровый) LostFilm
Режиссёр: Йохан Ренк, Киаран Доннелли, Кен Джиротти-В ролях: Трэвис Фиммел, Клайв Стэнден, Гэбриел Бирн, Кэтрин Уинник, Джессалин Гилсиг, Джордж Благден, Густаф Скарсгард, Торбьорн Харр, Владимир Кулих, Донал Лог, Айван Кэй, Мод Хирст, Эрик Хиггинс, Герард Маккарти, Юко Ахола, Эми Де Брюн, Сэм Смит, Билл Гибсон, Кевин Мюррэй и др.-Описание:
Сериал рассказывает об отряде викингов Рагнара. Он восстал, чтобы стать королём племён викингов. Норвежская легенда гласит, что он был прямым потомком Одина, бога войны и воинов.-Доп. информация:
Синхронизация звука:Grandfather61- -Ссылка на предыдущие и альтернативные раздачи-Качество: WEB-DL 720p
Контейнер: MKV
Видео: AVC, 1280x718 (1.778), 23.976 fps, ~4136 kbps, 0.188 bit/pixel
Аудио rus: AC-3, 48 KHz, 2 ch, 384 kbps
Аудио eng: AC-3, 48 KHz, 6 ch, 384 kbps
Субтитры: softsub (SRT) eng
Русские субтитры здесь:

Список серий

01. Война братьев /Brother's War
02. Вторжение /Invasion
03. Предательство /Treachery
04. Око за око /Eye for an Eye
05. Ответ кровью /Answers in Blood
06. Непрощённый /Unforgiven
07. Кровавый орел /Blood Eagle
08. Бескостный /Boneless
09. Выбор /The Choice
10. Отче наш /The Lord's Prayer

MediaInfo


Общее
Уникальный идентификатор : 181967970043736999474126237181402590506 (0x88E5C1991E715C82824E6BEE3C7AAD2A)
Полное имя : G:\Films\VIKINGS.02.720p.LostFilm\Vikings.S02E01.720p.WEB-DL.LostFilm.mkv
Формат : Matroska
Версия формата : Version 4 / Version 2
Размер файла : 1,54 Гбайт
Продолжительность : 44 м.
Общий поток : 5004 Кбит/сек
Дата кодирования : UTC 2014-08-15 13:03:57
Программа кодирования : mkvmerge v7.1.0 ('Good Love') 64bit built on Jul 27 2014 13:06:55
Библиотека кодирования : libebml v1.3.0 + libmatroska v1.4.1
_STATISTICS_WRITING_APP : mkvmerge v7.1.0 ('Good Love') 64bit built on Jul 27 2014 13:06:55
_STATISTICS_WRITING_DATE_UTC : 2014-08-15 13:03:57
_STATISTICS_TAGS : BPS DURATION NUMBER_OF_FRAMES NUMBER_OF_BYTES
DURATION : 00:43:33.410000000
NUMBER_OF_FRAMES : 552
NUMBER_OF_BYTES : 15859
Видео
Идентификатор : 1
Формат : AVC
Формат/Информация : Advanced Video Codec
Профиль формата : High@L3.1
Параметр CABAC формата : Нет
Параметр ReFrames формата : 2 кадра
Идентификатор кодека : V_MPEG4/ISO/AVC
Продолжительность : 44 м.
Битрейт : 4136 Кбит/сек
Ширина : 1280 пикселей
Высота : 718 пикселей
Соотношение сторон : 16:9
Режим частоты кадров : Постоянный
Частота кадров : 23,976 кадра/сек
Цветовое пространство : YUV
Субдискретизация насыщенности : 4:2:0
Битовая глубина : 8 бит
Тип развёртки : Прогрессивная
Бит/(Пиксели*Кадры) : 0.188
Размер потока : 1,28 Гбайт (83%)
Язык : English
Default : Да
Forced : Нет
Основные цвета : BT.709
Характеристики трансфера : BT.709
Коэффициенты матрицы : BT.709
Аудио #1
Идентификатор : 2
Формат : AC-3
Формат/Информация : Audio Coding 3
Расширение режима : CM (complete main)
Параметр Endianness формата : Big
Идентификатор кодека : A_AC3
Продолжительность : 44 м.
Вид битрейта : Постоянный
Битрейт : 384 Кбит/сек
Каналы : 2 канала
Расположение каналов : Front: L R
Частота : 48,0 КГц
Битовая глубина : 16 бит
Метод сжатия : С потерями
Размер потока : 121 Мбайт (8%)
Язык : Russian
Default : Да
Forced : Да
Аудио #2
Идентификатор : 3
Формат : AC-3
Формат/Информация : Audio Coding 3
Расширение режима : CM (complete main)
Параметр Endianness формата : Big
Идентификатор кодека : A_AC3
Продолжительность : 44 м.
Вид битрейта : Постоянный
Битрейт : 384 Кбит/сек
Каналы : 6 каналов
Расположение каналов : Front: L C R, Side: L R, LFE
Частота : 48,0 КГц
Битовая глубина : 16 бит
Метод сжатия : С потерями
Размер потока : 121 Мбайт (8%)
Язык : English
Default : Нет
Forced : Нет
Текст
Идентификатор : 4
Формат : UTF-8
Идентификатор кодека : S_TEXT/UTF8
Идентификатор кодека/Информация : UTF-8 Plain Text
Заголовок : CC
Язык : English
Default : Нет
Forced : Нет

Скриншоты

Внимание! Раздача ведётся путём добавления новых серий.


Внимание! Раздача ведётся путём добавления новых серий; при каждом добавлении создётся новый торрент. Чтобы начать докачку новой серии, пользователям необходимо сделать следующее:
Остановить скачивание.
Удалить старый торрент у себя из клиента (старые серии удалять не надо).
Скачать новый торрент и запустить его у себя в клиенте вместо старого, при этом указать клиенту путь в старую папку куда и должно происходить скачивание новых серий.
Ваш клиент при этом должен произвести хеширование (проверку) старой папки (если не производит сам - помогите ему сделать это), и будет докачивать только те серии которых у вас ещё нет. Старые серии при этом не удаляются, а продолжают раздаваться!
Eсли вы уже удалили старые серии, то предотвратить повторную закачку старых серий можно, отжав галочку в соответсвующих местах при запуске нового торрента. По возможности, желательно не удалять старые серии как можно дольше чтобы релизёр не столько продолжал раздавать старые серии, а смог сконцентрироваться на новых.
[freetreker.nl].t36.torrent 
 ЗОЛОТАЯ РАЗДАЧА! СКАЧАННОЕ НЕ ЗАСЧИТЫВАЕТСЯ! 
Торрент: Зарегистрирован [ 2017-07-21 07:49 ] · E9FEC8AB44F66268EE97CE2B232BD7E989FB25CB

Скачать .torrent

Скачать

35 KB

Статус: проверено
Скачан: 0 раз
Размер: 13,68 GB
terms.php
Похожие темы:
[Профиль] [ЛС]
Показать сообщения:    
Ответить на тему

Текущее время: 19-Июл 19:33

Часовой пояс: UTC ± 0



Вы не можете начинать темы
Вы не можете отвечать на сообщения
Вы не можете редактировать свои сообщения
Вы не можете удалять свои сообщения
Вы не можете голосовать в опросах
Вы не можете прикреплять файлы к сообщениям
Вы можете скачивать файлы