Викинги / Vikings / Сезон: 3 / Серии: 1-10 из 10 (Йохан Ренк, Киаран Доннелли, Кен Джиротти) [2015, Ирландия, Канада, боевик, драма, военный, история, WEB-DL 720p] MVO (OMSKBIRD records) + Original + Subs (rus, eng)

Ответить на тему
Статистика раздачи
Размер:  14,77 GB   |    Зарегистрирован:  9 месяцев 9 дней   |    Скачан:  0 раз

Полного источника не было: Никогда

 
     
 
 
 
Автор Сообщение

Grandfather61 ®

Пол: Мужской

Стаж: 1 год 2 месяца

Сообщений: 583

Создавать темы 21-Июл-2017 07:47

[Цитировать]

--Викинги / Vikings-- Год выпуска: 2015
Страна: Ирландия, Канада
Жанр: боевик, драма, военный, история
Продолжительность: ~ 00:43:00-Перевод: Любительский (многоголосый закадровый) OMSKBIRD records-Режиссёр: Йохан Ренк, Киаран Доннелли, Кен Джиротти и др.-В ролях: Трэвис Фиммел, Клайв Стэнден, Гэбриел Бирн, Кэтрин Уинник, Джессалин Гилсиг, Джордж Благден, Густаф Скарсгард, Торбьорн Харр, Владимир Кулих, Донал Лог, Айван Кэй, Мод Хирст, Эрик Хиггинс, Герард Маккарти, Юко Ахола, Эми Де Брюн, Сэм Смит, Билл Гибсон, Кевин Мюррэй-Описание: История повествует о приключениях величайшего героя своего времени – Рагнара Лодброка. В сериале показан Рагнар со своим племенем братьев-викингов и его семьёй в процессе становления королём всех племён викингов. Рагнар – бесстрашный воин, и религиозный викинг, который объединяет все племена и распространяет среди них поклонение скандинавским богам. Согласно легенде, он – прямой потомок Одина, бога войны и воителей.-Доп. информация:
Релиз-группа «OMSKBIRD records»
Роли озвучивали: Павел Ярощик, Ольга Федорова, Алексей Гнеушев, Алекс Дьяк, Виктор Губин и Мария Зверева
Звукорежиссер: Павел Ярощик- -Ссылка на предыдущие и альтернативные раздачи-Качество: WEB-DL 720p
Контейнер: MKV
Видео: AVC, 1280x718 (1.778), 23.976 fps, ~3933 kbps, 0.179 bit/pixel
Аудио rus: AC-3, 48 KHz, 6 ch, 384 kbps | OMSKBIRD records
Аудио eng: AC-3, 48 KHz, 6 ch, 384 kbps
Субтитры: русский (notabenoid), английский

Релиз

Монтаж, работа со звуком, синхронизация субтитров : Skyns61
Релиз подготовил: Skyns61
Чистый Voiceover от «OMSKBIRD records» был наложен на центр оригинального AC3.

Список серий

01. Наёмник /Mercenary
02. Странник /The Wanderer
03. Путь воина /Warrior's Fate
04. Шрам /Scarred
05. Узурпатор /The Usurper
06. Рождённый заново /Born Again
07. Рождённый заново /Born Again
08. В атаку! /To the Gates!
09. Перелом /Breaking Point
10. Мертвец /The Dead

MediaInfo

Общее
Уникальный идентификатор : 211881798707393556241050676778243983286 (0x9F66F33873631BF8A9CC3BF15F3C07B6)
Полное имя : F:\Films\Vikings.s03.720p (OmskBird)\Vikings.S03E01.720p.WEB-DL.OmskBird.DD5.1.mkv
Формат : Matroska
Версия формата : Version 4 / Version 2
Размер файла : 1,51 Гбайт
Продолжительность : 45 м.
Общий поток : 4797 Кбит/сек
Дата кодирования : UTC 2015-03-12 13:16:59
Программа кодирования : mkvmerge v7.7.0 ('Six Voices') 64bit built on Feb 28 2015 23:39:33
Библиотека кодирования : libebml v1.3.1 + libmatroska v1.4.2
DURATION : 00:45:10.048000000
NUMBER_OF_FRAMES : 84689
NUMBER_OF_BYTES : 130082304
_STATISTICS_WRITING_APP : mkvmerge v7.7.0 ('Six Voices') 64bit built on Feb 28 2015 23:39:33
_STATISTICS_WRITING_DATE_UTC : 2015-03-12 13:16:59
_STATISTICS_TAGS : BPS DURATION NUMBER_OF_FRAMES NUMBER_OF_BYTES
Видео
Идентификатор : 1
Формат : AVC
Формат/Информация : Advanced Video Codec
Профиль формата : High@L3.1
Параметр CABAC формата : Нет
Параметр ReFrames формата : 2 кадра
Идентификатор кодека : V_MPEG4/ISO/AVC
Продолжительность : 45 м.
Битрейт : 3933 Кбит/сек
Ширина : 1280 пикселей
Высота : 718 пикселей
Соотношение сторон : 16:9
Режим частоты кадров : Постоянный
Частота кадров : 23,976 кадра/сек
Цветовое пространство : YUV
Субдискретизация насыщенности : 4:2:0
Битовая глубина : 8 бит
Тип развёртки : Прогрессивная
Бит/(Пиксели*Кадры) : 0.179
Размер потока : 1,24 Гбайт (82%)
Язык : English
Default : Да
Forced : Нет
Основные цвета : BT.709
Характеристики трансфера : BT.709
Коэффициенты матрицы : BT.709
Аудио #1
Идентификатор : 2
Формат : AC-3
Формат/Информация : Audio Coding 3
Расширение режима : CM (complete main)
Параметр Endianness формата : Big
Идентификатор кодека : A_AC3
Продолжительность : 45 м.
Вид битрейта : Постоянный
Битрейт : 384 Кбит/сек
Каналы : 6 каналов
Расположение каналов : Front: L C R, Side: L R, LFE
Частота : 48,0 КГц
Битовая глубина : 16 бит
Метод сжатия : С потерями
Размер потока : 124 Мбайт (8%)
Заголовок : OMSKBIRD
Язык : Russian
Default : Да
Forced : Нет
Аудио #2
Идентификатор : 3
Формат : AC-3
Формат/Информация : Audio Coding 3
Расширение режима : CM (complete main)
Параметр Endianness формата : Big
Идентификатор кодека : A_AC3
Продолжительность : 45 м.
Вид битрейта : Постоянный
Битрейт : 384 Кбит/сек
Каналы : 6 каналов
Расположение каналов : Front: L C R, Side: L R, LFE
Частота : 48,0 КГц
Битовая глубина : 16 бит
Метод сжатия : С потерями
Размер потока : 124 Мбайт (8%)
Язык : English
Default : Нет
Forced : Нет
Текст #1
Идентификатор : 4
Формат : UTF-8
Идентификатор кодека : S_TEXT/UTF8
Идентификатор кодека/Информация : UTF-8 Plain Text
Заголовок : notabenoid
Язык : Russian
Default : Нет
Forced : Нет
Текст #2
Идентификатор : 5
Формат : UTF-8
Идентификатор кодека : S_TEXT/UTF8
Идентификатор кодека/Информация : UTF-8 Plain Text
Заголовок : CC
Язык : English
Default : Нет
Forced : Нет

Скриншоты

Раздача обновлена. Добавлена 10-я серии. Приятного просмотра!
[freetreker.nl].t37.torrent 
Торрент: Зарегистрирован [ 2017-12-14 06:52 ] · C29522FF1683C6FC94DE80390FAC17E7C7DC896E

Скачать .torrent

Скачать

39 KB

Статус: проверено
Скачан: 0 раз
Размер: 14,77 GB
terms.php
Похожие темы:
[Профиль] [ЛС]
Показать сообщения:    
Ответить на тему

Текущее время: 23-Сен 14:05

Часовой пояс: UTC ± 0



Вы не можете начинать темы
Вы не можете отвечать на сообщения
Вы не можете редактировать свои сообщения
Вы не можете удалять свои сообщения
Вы не можете голосовать в опросах
Вы не можете прикреплять файлы к сообщениям
Вы можете скачивать файлы