Убийство первой степени / Murder in the First / Сезон: 2 / Серии: 1-12 из 12 (Джесси Бокко, Эллисон Андерс, Реджинальд Хадлин,) [2015, США, Драма, детектив, триллер, HDTVRip] MVO (OMSKBIRD) + Original + Subs (Rus, Eng)

Ответить на тему
Статистика раздачи
Размер:  7,45 GB   |    Зарегистрирован:  9 месяцев 10 дней   |    Скачан:  0 раз

Полного источника не было: Никогда

 
     
 
 
 
Автор Сообщение

Grandfather61 ®

Пол: Мужской

Стаж: 1 год 2 месяца

Сообщений: 583

Создавать темы 13-Дек-2017 06:44

[Цитировать]

--Убийство первой степени / Murder in the First-- Год выпуска: 2015
Страна: США
Жанр: Драма, детектив, триллер
Продолжительность: ~00:42:00
Перевод: Любительский (многоголосый закадровый) OMSKBIRD records-Режиссёр: Джесси Бокко, Эллисон Андерс, Реджинальд Хадлин,
В ролях: Йен Энтони Дэйл, Тэй Диггз, Кэтлин Робертсон, Карри Грэм, Мими Кирклэнд, Ричард Шифф, Рафаэль Сбардж, Ломбардо Бойяр, Том Фелтон, Стивен Уэбер ...-Описание: В центре сюжета сериала, действие которого разворачивается в Сан-Франциско, находятся детективы Терри Сигрейв и Хилди Маллиган, которые расследуют обычное убийство наркомана, однако в ходе развития дела выходят на генерального директора компании по разработке передовых технологий Эрика Бланта.-Доп. информация: Релиз-группа:
Роли озвучивали: Павел Ярощик, Ольга Федорова, Владислав Данилов
Перевод: Екатерина Кузнецова
Звукорежиссер: Павел Квентов- --Качество: HDTVRip
Формат: AVI
Видео: XviD, 720х400 (16:9), 23.976 fps, ~1771 kbps
Аудио rus: MP3, 48 KHz, 2 ch, 192 kbps | OMSKBIRD records
Аудио eng: MP3, 48 KHz, 2 ch, 192 kbps | original
Субтитры: Русский (OmskBird), английский

Релиз

Релиз подготовил: Skyns61
Сборка, работа со звуком: Skyns61
Перевод субтитров: redvines

Список серий

01. Twenty-Fifteen
02. Schizofrenzy
03. Blue on Blue
04. My Suger Walls
05. The McCormack Mulligan
06. Oh, Mexico
07. State of the Union
08. Out of the Shadows
09. Bruja Blanca
10. Nothing but the Truth
11. Down Time
12. Number Thirty Nine

MediaInfo

Общее
Полное имя : G:\Films\Murder.in.the.First.S02..XviD.OmskBird\Murder.in.the.First.S02E01.XviD.Rus.Eng.OmskBird.avi
Формат : AVI
Формат/Информация : Audio Video Interleave
Размер файла : 687 Мбайт
Продолжительность : 41 м.
Общий поток : 2288 Кбит/сек
Программа кодирования : VirtualDubMod 1.5.10.3 (build 2550/release)
Библиотека кодирования : VirtualDubMod build 2550/release
Видео
Идентификатор : 0
Формат : MPEG-4 Visual
Профиль формата : Advanced Simple@L5
Параметр BVOP формата : 1
Параметр QPel формата : Нет
Параметр GMC формата : Без точки перехода
Параметр матрицы формата : Default (H.263)
Идентификатор кодека : XVID
Идентификатор кодека/Подсказка : XviD
Продолжительность : 41 м.
Битрейт : 1890 Кбит/сек
Ширина : 720 пикселей
Высота : 400 пикселей
Соотношение сторон : 16:9
Частота кадров : 23,976 кадра/сек
Цветовое пространство : YUV
Субдискретизация насыщенности : 4:2:0
Битовая глубина : 8 бит
Тип развёртки : Прогрессивная
Метод сжатия : С потерями
Бит/(Пиксели*Кадры) : 0.274
Размер потока : 568 Мбайт (83%)
Библиотека кодирования : XviD 64
Аудио #1
Идентификатор : 1
Формат : MPEG Audio
Версия формата : Version 1
Профиль формата : Layer 3
Режим : Joint stereo
Расширение режима : MS Stereo
Идентификатор кодека : 55
Идентификатор кодека/Подсказка : MP3
Продолжительность : 41 м.
Вид битрейта : Постоянный
Битрейт : 192 Кбит/сек
Каналы : 2 канала
Частота : 48,0 КГц
Метод сжатия : С потерями
Размер потока : 57,7 Мбайт (8%)
Выравнивание : Разделение по промежуткам
Продолжительность промежутка : 42 мс. (1,00 видеокадр)
Время предзагрузки промежутка : 500 мс.
Библиотека кодирования : LAME3.98.2UUUUUUU‰‡
Аудио #2
Идентификатор : 2
Формат : MPEG Audio
Версия формата : Version 1
Профиль формата : Layer 3
Режим : Joint stereo
Расширение режима : MS Stereo
Идентификатор кодека : 55
Идентификатор кодека/Подсказка : MP3
Продолжительность : 41 м.
Вид битрейта : Постоянный
Битрейт : 192 Кбит/сек
Каналы : 2 канала
Частота : 48,0 КГц
Метод сжатия : С потерями
Размер потока : 57,7 Мбайт (8%)
Выравнивание : Разделение по промежуткам
Продолжительность промежутка : 42 мс. (1,00 видеокадр)
Время предзагрузки промежутка : 500 мс.
Библиотека кодирования : LAME3.98.2

Скриншоты

[freetreker.nl].t372.torrent 
Торрент: Зарегистрирован [ 2017-12-13 06:44 ] · 9298D0697AA472E918E2E3C667E9C57614FE92ED

Скачать .torrent

Скачать

22 KB

Статус: проверено
Скачан: 0 раз
Размер: 7,45 GB
terms.php
Похожие темы:
[Профиль] [ЛС]
Показать сообщения:    
Ответить на тему

Текущее время: 23-Сен 14:27

Часовой пояс: UTC ± 0



Вы не можете начинать темы
Вы не можете отвечать на сообщения
Вы не можете редактировать свои сообщения
Вы не можете удалять свои сообщения
Вы не можете голосовать в опросах
Вы не можете прикреплять файлы к сообщениям
Вы можете скачивать файлы