Убийство первой степени / Murder in the First / Сезон: 2 / Серии: 1-12 из 12 (Джесси Бокко, Эллисон Андерс, Реджинальд Хадлин) [2015, США, Драма, детектив, триллер, HDTVRip 720p] MVO (OMSKBIRD) + Original + Subs (Rus, Eng)

Ответить на тему
Статистика раздачи
Размер:  10,82 GB   |    Зарегистрирован:  4 месяца 7 дней   |    Скачан:  0 раз

Полного источника не было: Никогда

 
     
 
 
 
Автор Сообщение

Grandfather61 ®

Пол: Мужской

Стаж: 9 месяцев 11 дней

Сообщений: 507

Создавать темы 13-Дек-2017 06:47

[Цитировать]

--Убийство первой степени / Murder in the First-- Год выпуска: 2015
Страна: США
Жанр: Драма, детектив, триллер
Продолжительность: ~00:42:00-Перевод: Любительский (многоголосый закадровый) OMSKBIRD records-Режиссёр: Джесси Бокко, Эллисон Андерс, Реджинальд Хадлин
В ролях: Йен Энтони Дэйл, Тэй Диггз, Кэтлин Робертсон, Карри Грэм, Мими Кирклэнд, Ричард Шифф, Рафаэль Сбардж, Ломбардо Бойяр, Том Фелтон, Стивен Уэбер ...-Описание: В центре сюжета сериала, действие которого разворачивается в Сан-Франциско, находятся детективы Терри Сигрейв и Хилди Маллиган, которые расследуют обычное убийство наркомана, однако в ходе развития дела выходят на генерального директора компании по разработке передовых технологий Эрика Бланта.-Доп. информация:
Релиз-группа:
Роли озвучивали: Павел Ярощик, Ольга Федорова, Владислав Данилов
Перевод: Екатерина Кузнецова
Звукорежиссер: Павел Квентов- --[Качество: HDTVRip 720p
Контейнер: MKV
Видео: AVC, 1280x720 (1.778:1), 23.976 fps, ~2740 kbps, 0.124 bit/pixel
Аудио rus: AC-3, 48 KHz, 6 ch, 384 kbps | OMSKBIRD records
Аудио eng: AC-3, 48 KHz, 6 ch, 384 kbps | original
Субтитры: Русский (OmskBird), английский

Релиз

Релиз подготовил: Skyns61
Сборка, работа со звуком и субтитрами: Skyns61
Перевод субтитров: redvines

Список серий

01. Twenty-Fifteen
02. Schizofrenzy
03. Blue on Blue
04. My Suger Walls
05. The McCormack Mulligan
06. Oh, Mexico
07. State of the Union
08. Out of the Shadows
09. Bruja Blanca
10. Nothing but the Truth
11. Down Time
12. Number Thirty Nine

MediaInfo

Общее
Уникальный идентификатор : 249882103310907040811288725173441082926 (0xBBFD8AE3764307E7B65824002677362E)
Полное имя : G:\Films\Murder.in.the.First.S02.720p.OmskBird\Murder.in.the.First.S02E01.720p.HDTV.Rus.Eng.OmskBird.mkv
Формат : Matroska
Версия формата : Version 4 / Version 2
Размер файла : 1,07 Гбайт
Продолжительность : 42 м.
Общий поток : 3645 Кбит/сек
Дата кодирования : UTC 2015-07-08 06:04:35
Программа кодирования : mkvmerge v8.1.0 ('Psychedelic Postcard') 64bit
Библиотека кодирования : libebml v1.3.1 + libmatroska v1.4.2
DURATION : 00:41:03.805000000
NUMBER_OF_FRAMES : 658
NUMBER_OF_BYTES : 19934
_STATISTICS_WRITING_APP : mkvmerge v8.1.0 ('Psychedelic Postcard') 64bit
_STATISTICS_WRITING_DATE_UTC : 2015-07-08 06:04:35
_STATISTICS_TAGS : BPS DURATION NUMBER_OF_FRAMES NUMBER_OF_BYTES
Видео
Идентификатор : 1
Формат : AVC
Формат/Информация : Advanced Video Codec
Профиль формата : High@L4.1
Параметр CABAC формата : Да
Параметр ReFrames формата : 8 кадров
Идентификатор кодека : V_MPEG4/ISO/AVC
Продолжительность : 42 м.
Битрейт : 2740 Кбит/сек
Ширина : 1280 пикселей
Высота : 720 пикселей
Соотношение сторон : 16:9
Режим частоты кадров : Постоянный
Частота кадров : 23,976 кадра/сек
Цветовое пространство : YUV
Субдискретизация насыщенности : 4:2:0
Битовая глубина : 8 бит
Тип развёртки : Прогрессивная
Бит/(Пиксели*Кадры) : 0.124
Размер потока : 823 Мбайт (75%)
Библиотека кодирования : x264 core 146 r2538 121396c
Настройки программы : cabac=1 / ref=8 / deblock=1:-2:-2 / analyse=0x3:0x113 / me=umh / subme=9 / psy=1 / psy_rd=1.00:0.00 / mixed_ref=1 / me_range=24 / chroma_me=1 / trellis=1 / 8x8dct=1 / cqm=0 / deadzone=21,11 / fast_pskip=0 / chroma_qp_offset=-2 / threads=18 / lookahead_threads=2 / sliced_threads=0 / nr=0 / decimate=1 / interlaced=0 / bluray_compat=0 / constrained_intra=0 / bframes=5 / b_pyramid=2 / b_adapt=2 / b_bias=0 / direct=3 / weightb=1 / open_gop=0 / weightp=2 / keyint=250 / keyint_min=23 / scenecut=40 / intra_refresh=0 / rc_lookahead=50 / rc=crf / mbtree=1 / crf=18.0 / qcomp=0.60 / qpmin=0 / qpmax=69 / qpstep=4 / ip_ratio=1.40 / aq=1:1.00
Язык : English
Default : Да
Forced : Нет
DURATION : 00:41:59.893000000
NUMBER_OF_FRAMES : 60417
NUMBER_OF_BYTES : 885251002
_STATISTICS_WRITING_APP : mkvmerge v8.1.0 ('Psychedelic Postcard') 64bit
_STATISTICS_WRITING_DATE_UTC : 2015-07-08 06:04:35
_STATISTICS_TAGS : BPS DURATION NUMBER_OF_FRAMES NUMBER_OF_BYTES
Аудио #1
Идентификатор : 2
Формат : AC-3
Формат/Информация : Audio Coding 3
Расширение режима : CM (complete main)
Параметр Endianness формата : Big
Идентификатор кодека : A_AC3
Продолжительность : 42 м.
Вид битрейта : Постоянный
Битрейт : 384 Кбит/сек
Каналы : 6 каналов
Расположение каналов : Front: L C R, Side: L R, LFE
Частота : 48,0 КГц
Битовая глубина : 16 бит
Метод сжатия : С потерями
Размер потока : 115 Мбайт (11%)
Заголовок : OmskBird 5.1
Язык : Russian
Default : Да
Forced : Нет
Аудио #2
Идентификатор : 3
Формат : AC-3
Формат/Информация : Audio Coding 3
Расширение режима : CM (complete main)
Параметр Endianness формата : Big
Идентификатор кодека : A_AC3
Продолжительность : 42 м.
Вид битрейта : Постоянный
Битрейт : 448 Кбит/сек
Каналы : 6 каналов
Расположение каналов : Front: L C R, Side: L R, LFE
Частота : 48,0 КГц
Битовая глубина : 16 бит
Метод сжатия : С потерями
Задержка видео : 24 мс.
Размер потока : 135 Мбайт (12%)
Заголовок : original 5.1
Язык : English
Default : Нет
Forced : Нет
Текст #1
Идентификатор : 4
Формат : UTF-8
Идентификатор кодека : S_TEXT/UTF8
Идентификатор кодека/Информация : UTF-8 Plain Text
Заголовок : rus
Язык : Russian
Default : Нет
Forced : Нет
Текст #2
Идентификатор : 5
Формат : UTF-8
Идентификатор кодека : S_TEXT/UTF8
Идентификатор кодека/Информация : UTF-8 Plain Text
Заголовок : CC
Язык : English
Default : Нет
Forced : Нет

Скриншоты

[freetreker.nl].t373.torrent 
Торрент: Зарегистрирован [ 2017-12-13 06:47 ] · 8A2D3F52573F0CC0E782C9CAADF42D656AFE4B9B

Скачать .torrent

Скачать

29 KB

Статус: проверено
Скачан: 0 раз
Размер: 10,82 GB
terms.php
Похожие темы:
[Профиль] [ЛС]
Показать сообщения:    
Ответить на тему

Текущее время: 20-Апр 23:59

Часовой пояс: UTC ± 0



Вы не можете начинать темы
Вы не можете отвечать на сообщения
Вы не можете редактировать свои сообщения
Вы не можете удалять свои сообщения
Вы не можете голосовать в опросах
Вы не можете прикреплять файлы к сообщениям
Вы можете скачивать файлы