Побег: Продолжение / Prison Break: Sequel / Сезон: 5 / Серии: 1-9 из 9 (Нельсон МакКормик) [2017, США, Боевик, триллер, драма, криминал, детектив, WEB-DL 1080p] MVO (OmskBird) + Original

Ответить на тему
Статистика раздачи
Размер:  16,29 GB   |    Зарегистрирован:  4 месяца 13 дней   |    Скачан:  0 раз

Полного источника не было: Никогда

 
     
 
 
 
Автор Сообщение

Grandfather61 ®

Пол: Мужской

Стаж: 9 месяцев 17 дней

Сообщений: 510

Создавать темы 13-Дек-2017 08:35

[Цитировать]

--Побег: Продолжение / Prison Break: Sequel-- Год выпуска: 2017
Страна: США
Жанр: Боевик, триллер, драма, криминал, детектив
Продолжительность: ~ 00:43:00
Перевод: Любительский (многоголосый закадровый) OmskBird
Режиссёр: Нельсон МакКормик
В ролях: Доминик Пёрселл, Вентворт Миллер, Амори Ноласко, Роберт Неппер, Сара Уэйн Кэллис, Рокмонд Данбар, Марина Бенедикт, Кристиан Майкл Купер, Марк Фойерстин, Стив Музакис, Эмин Эль Гамин, Кертис Льюм, Бобби Надери, Пол Адельштейн
Описание: Линкольн и Сара объединяются после того, как выяснилось, что Майкл все еще жив и находится в йеменской тюрьме. Майкл страдает амнезией, поэтому Сара и Линкольн не знали, что он жив, пока Ти-Бэг не принёс фотографию Майкла, сделанную в тюрьме, где находится Скофилд. Сара и Линкольн планируют масштабный побег с помощью друзей.
Доп. информация:
Релиз-группа:
Перевод: Николай Исаков
Роли озвучивали: Павел Ярощик, Андрей Стакионис, Ольга Федорова
Звукорежиссер: Павел Квентов
Постер: Ксения Просветова
Монтаж и сведение звука: Юрий Гамов- -Ссылка на предыдущие и альтернативные раздачи-Качество: WEB-DL 1080p
Контейнер: MKV
Видео: H.264, 1916x1076 (16:9), 23,976 fps, ~5 100 kbps, 0.104 bit/pixel
Аудио # rus: AC3, 48 kHz, 6 ch, 384 kbps - OmskBird
Аудио # eng: AC3, 48 kHz, 6 ch, 384 kbps
Субтитры: английские
Реклама:
присутствуют аудио вставки рекламы (в начале и в конце по 10 сек.)

MediaInfo

General
Unique ID : 226130405275217846221166855671060163088 (0xAA1F21C3412319458EFF48FC7160EA10)
Complete name : G:\Films\Prison.Break.S05.1080p.WEB-DL.OmskBird\Prison.Break.S05E01.1080p.WEB-DL.OmskBird.mkv
Format : Matroska
Format version : Version 4 / Version 2
File size : 1.79 GiB
Duration : 43mn 17s
Overall bit rate : 5 908 Kbps
Encoded date : UTC 2017-04-06 03:26:23
Writing application : mkvmerge v9.9.0 ('Pick Up') 64bit
Writing library : libebml v1.3.4 + libmatroska v1.4.5
Video
ID : 1
Format : AVC
Format/Info : Advanced Video Codec
Format profile : High@L4
Format settings, CABAC : Yes
Format settings, ReFrames : 4 frames
Codec ID : V_MPEG4/ISO/AVC
Duration : 43mn 17s
Bit rate : 5 137 Kbps
Width : 1 916 pixels
Height : 1 076 pixels
Display aspect ratio : 16:9
Frame rate mode : Constant
Frame rate : 23.976 (24000/1001) fps
Color space : YUV
Chroma subsampling : 4:2:0
Bit depth : 8 bits
Scan type : Progressive
Bits/(Pixel*Frame) : 0.104
Stream size : 1.55 GiB (87%)
Title : eng
Language : English
Default : Yes
Forced : No
Color range : Limited
Color primaries : BT.709
Transfer characteristics : BT.709
Matrix coefficients : BT.709
Audio #1
ID : 2
Format : AC-3
Format/Info : Audio Coding 3
Mode extension : CM (complete main)
Format settings, Endianness : Big
Codec ID : A_AC3
Duration : 43mn 17s
Bit rate mode : Constant
Bit rate : 384 Kbps
Channel(s) : 6 channels
Channel positions : Front: L C R, Side: L R, LFE
Sampling rate : 48.0 KHz
Frame rate : 31.250 fps (1536 spf)
Compression mode : Lossy
Stream size : 119 MiB (7%)
Title : OmskBird 5.1
Language : Russian
Default : Yes
Forced : No
Audio #2
ID : 3
Format : AC-3
Format/Info : Audio Coding 3
Mode extension : CM (complete main)
Format settings, Endianness : Big
Codec ID : A_AC3
Duration : 43mn 17s
Bit rate mode : Constant
Bit rate : 384 Kbps
Channel(s) : 6 channels
Channel positions : Front: L C R, Side: L R, LFE
Sampling rate : 48.0 KHz
Frame rate : 31.250 fps (1536 spf)
Compression mode : Lossy
Stream size : 119 MiB (7%)
Title : eng
Language : English
Default : No
Forced : No
Text
ID : 4
Format : UTF-8
Codec ID : S_TEXT/UTF8
Codec ID/Info : UTF-8 Plain Text
Duration : 43mn 15s
Bit rate : 63 bps
Count of elements : 666
Stream size : 20.0 KiB (0%)
Title : eng
Language : English
Default : No
Forced : No

Скриншоты

Внимание! Раздача ведётся путём добавления новых серий.


Внимание! Раздача ведётся путём добавления новых серий; при каждом добавлении создётся новый торрент. Чтобы начать докачку новой серии, пользователям необходимо сделать следующее:
Остановить скачивание.
Удалить старый торрент у себя из клиента (старые серии удалять не надо).
Скачать новый торрент и запустить его у себя в клиенте вместо старого, при этом указать клиенту путь в старую папку куда и должно происходить скачивание новых серий.
Ваш клиент при этом должен произвести хеширование (проверку) старой папки (если не производит сам - помогите ему сделать это), и будет докачивать только те серии которых у вас ещё нет. Старые серии при этом не удаляются, а продолжают раздаваться!
Eсли вы уже удалили старые серии, то предотвратить повторную закачку старых серий можно, отжав галочку в соответсвующих местах при запуске нового торрента. По возможности, желательно не удалять старые серии как можно дольше чтобы релизёр не столько продолжал раздавать старые серии, а смог сконцентрироваться на новых.
[freetreker.nl].t387.torrent 
Торрент: Зарегистрирован [ 2017-12-13 08:35 ] · A1937739D6743F36F17CC9A010B7133920D22A6F

Скачать .torrent

Скачать

42 KB

Статус: проверено
Скачан: 0 раз
Размер: 16,29 GB
terms.php
Похожие темы:
[Профиль] [ЛС]
Показать сообщения:    
Ответить на тему

Текущее время: 26-Апр 19:24

Часовой пояс: UTC ± 0



Вы не можете начинать темы
Вы не можете отвечать на сообщения
Вы не можете редактировать свои сообщения
Вы не можете удалять свои сообщения
Вы не можете голосовать в опросах
Вы не можете прикреплять файлы к сообщениям
Вы можете скачивать файлы