Мгла / The Mist / Сезон: 1 / Серии: 1-10 из 10 (Адам Дэвидсон, Иэн Б. МакДональд) [2017, США, Драма, комедия, WEBRip 1080p] MVO (OmskBird) Original

Ответить на тему
Статистика раздачи
Размер:  11,12 GB   |    Зарегистрирован:  1 год 3 месяца   |    Скачан:  2 раза

Полного источника не было: 1 год 1 месяц

 
     
 
 
 
Автор Сообщение

Grandfather61 ®

Пол: Мужской

Стаж: 1 год 5 месяцев

Сообщений: 641

Создавать темы 22-Июл-2017 19:57

[Цитировать]

-- Мгла / The Mist -- Год выпуска: 2017
Страна: США
Жанр: Ужасы, драма, триллер, экранизация
Продолжительность: ~ 00:44:00-Перевод: Многоголосый закадровый OmskBird-Режиссёр: Адам Бернштейн, Гай Ферленд
В ролях: Алисса Сазерленд, Исайя Уитлок мл., Билл Карр, Гас Бирни, Люк Косгров, Грег Ованессян, Дарси Линдсон, Александра Ордолис, Лола Флэнери и др.-Описание: Художник Дэвид Дрейтон живет в загородном доме в небольшом городке штата Мэн. После сильного шторма он вместе с сыном отправляется в местный супермаркет, где покупателей настигает жуткий туман.-Доп. информация:
Релиз-группа:
Перевод: Николай Исаков
Роли озвучивали: Павел Ярощик, Алексей Гнеушев, Марина Гассан
Звукорежиссер: Павел Квентов
Постер: Ксения Просветова
Монтаж и сведение звука: Юрий Гамов- -Ссылка на предыдущие и альтернативные раздачи-Качество: WEBRip1080p
Контейнер: MKV
Видео: H.264, 1920x1080 (16:9), 23.976 fps, ~3400 Kbps, 0.069 bit/pixel
Аудио # rus: AC3, 48 kHz, 2 ch, 192 kbps
Аудио # eng: AC3, 48 kHz, 2 ch, 192 kbps
Субтитры: Английские
Реклама:
присутствуют аудио вставки рекламы (в начале и в конце по 10 сек.)

Список серий

01. Pilot
02. Withdrawal
03. Show and Tell
04. Pequod
05. The Waiting Room
06. The Devil You Know
07. Over the River and Through the Woods
08. The Law of Nature
09. The Waking Dream
10. The Tenth Meal

MediaInfo

General
Unique ID : 242120471612261837804424019153459838131 (0xB626B4E68992B1F5998FA302881F7CB3)
Complete name : G:\Films\The.Mist.S01.1080p.WEBRip.OmskBird\The.Mist.S01E01.1080p.WEBRip.OmskBird.mkv
Format : Matroska
Format version : Version 4 / Version 2
File size : 1.17 GiB
Duration : 44mn 0s
Overall bit rate : 3 810 Kbps
Encoded date : UTC 2017-06-23 18:44:27
Writing application : mkvmerge v12.0.0 ('Trust / Lust') 64bit
Writing library : libebml v1.3.4 + libmatroska v1.4.5
Cover : Yes
Attachments : small_cover.jpg / small_cover_land.jpg / cover.jpg / cover_land.jpg
Video
ID : 1
Format : AVC
Format/Info : Advanced Video Codec
Format profile : [email protected]
Format settings, CABAC : Yes
Format settings, ReFrames : 4 frames
Codec ID : V_MPEG4/ISO/AVC
Duration : 44mn 0s
Bit rate : 3 423 Kbps
Width : 1 920 pixels
Height : 1 080 pixels
Display aspect ratio : 16:9
Frame rate mode : Constant
Frame rate : 23.976 (24000/1001) fps
Color space : YUV
Chroma subsampling : 4:2:0
Bit depth : 8 bits
Scan type : Progressive
Bits/(Pixel*Frame) : 0.069
Stream size : 1.05 GiB (90%)
Writing library : x264 core 138
Encoding settings : cabac=1 / ref=4 / deblock=1:0:0 / analyse=0x3:0x113 / me=umh / subme=10 / psy=1 / psy_rd=1.00:0.15 / mixed_ref=1 / me_range=32 / chroma_me=1 / trellis=2 / 8x8dct=1 / cqm=0 / deadzone=21,11 / fast_pskip=1 / chroma_qp_offset=-3 / threads=32 / lookahead_threads=2 / sliced_threads=0 / nr=0 / decimate=0 / interlaced=0 / bluray_compat=0 / constrained_intra=0 / bframes=3 / b_pyramid=0 / b_adapt=2 / b_bias=0 / direct=3 / weightb=1 / open_gop=0 / weightp=2 / keyint=48 / keyint_min=23 / scenecut=0 / intra_refresh=0 / rc_lookahead=48 / rc=crf / mbtree=1 / crf=19.0 / qcomp=0.60 / qpmin=10 / qpmax=51 / qpstep=4 / vbv_maxrate=5000 / vbv_bufsize=10000 / crf_max=0.0 / nal_hrd=none / filler=0 / ip_ratio=1.40 / aq=1:0.80
Language : English
Default : Yes
Forced : No
Audio #1
ID : 2
Format : AC-3
Format/Info : Audio Coding 3
Mode extension : CM (complete main)
Format settings, Endianness : Big
Codec ID : A_AC3
Duration : 44mn 0s
Bit rate mode : Constant
Bit rate : 192 Kbps
Channel(s) : 2 channels
Channel positions : Front: L R
Sampling rate : 48.0 KHz
Frame rate : 31.250 fps (1536 spf)
Compression mode : Lossy
Stream size : 60.4 MiB (5%)
Title : OmskBird
Language : Russian
Default : Yes
Forced : No
Audio #2
ID : 3
Format : AC-3
Format/Info : Audio Coding 3
Mode extension : CM (complete main)
Format settings, Endianness : Big
Codec ID : A_AC3
Duration : 44mn 0s
Bit rate mode : Constant
Bit rate : 192 Kbps
Channel(s) : 2 channels
Channel positions : Front: L R
Sampling rate : 48.0 KHz
Frame rate : 31.250 fps (1536 spf)
Compression mode : Lossy
Stream size : 60.4 MiB (5%)
Title : eng
Language : English
Default : No
Forced : No
Text
ID : 4
Format : UTF-8
Codec ID : S_TEXT/UTF8
Codec ID/Info : UTF-8 Plain Text
Duration : 43mn 10s
Bit rate : 77 bps
Count of elements : 690
Stream size : 24.4 KiB (0%)
Title : eng
Language : English
Default : No
Forced : No

Скриншоты

Внимание! Раздача ведётся путём добавления новых серий.

Внимание! Раздача ведётся путём добавления новых серий; при каждом добавлении создётся новый торрент. Чтобы начать докачку новой серии, пользователям необходимо сделать следующее:
Остановить скачивание.
Удалить старый торрент у себя из клиента (старые серии удалять не надо).
Скачать новый торрент и запустить его у себя в клиенте вместо старого, при этом указать клиенту путь в старую папку куда и должно происходить скачивание новых серий.
Ваш клиент при этом должен произвести хеширование (проверку) старой папки (если не производит сам - помогите ему сделать это), и будет докачивать только те серии которых у вас ещё нет. Старые серии при этом не удаляются, а продолжают раздаваться!
Eсли вы уже удалили старые серии, то предотвратить повторную закачку старых серий можно, отжав галочку в соответсвующих местах при запуске нового торрента. По возможности, желательно не удалять старые серии как можно дольше чтобы релизёр не столько продолжал раздавать старые серии, а смог сконцентрироваться на новых.
Раздача обновлена. Добавлена 10-я серия. Приятного просмотра!
[freetreker.nl].t39.torrent 
 ЗОЛОТАЯ РАЗДАЧА! СКАЧАННОЕ НЕ ЗАСЧИТЫВАЕТСЯ! 
Торрент: Зарегистрирован [ 2017-08-26 05:53 ] · F45D9F636B4AA1EE9C510BDCB7995C3A69810C65

Скачать .torrent

Скачать

29 KB

Статус: проверено
Скачан: 2 раз
Размер: 11,12 GB
terms.php
Похожие темы:


Последний раз редактировалось: Grandfather61 (2017-08-26 05:53), всего редактировалось 7 раз(а)
[Профиль] [ЛС]

Gater

Пол: Не указан

Стаж: 1 год 5 месяцев

Сообщений: 1582

Создавать темы 28-Июл-2017 21:55 (спустя 6 дней)

[Цитировать]

Раздача обновлена. Добавлена 6-я серия. Приятного просмотра!
[Профиль] [ЛС]

Grandfather61 ®

Пол: Мужской

Стаж: 1 год 5 месяцев

Сообщений: 641

Создавать темы 05-Авг-2017 05:22 (спустя 7 дней)

[Цитировать]

Раздача обновлена. Добавлены англ.субтитры в 6-ю серию. Добавлена 7-я серия. Приятного просмотра!
[Профиль] [ЛС]

Grandfather61 ®

Пол: Мужской

Стаж: 1 год 5 месяцев

Сообщений: 641

Создавать темы 12-Авг-2017 16:49 (спустя 7 дней)

[Цитировать]

Раздача обновлена. Добавлена 8-я серия. Приятного просмотра!
[Профиль] [ЛС]

Grandfather61 ®

Пол: Мужской

Стаж: 1 год 5 месяцев

Сообщений: 641

Создавать темы 19-Авг-2017 16:54 (спустя 7 дней)

[Цитировать]

Раздача обновлена. Замена исходника 8 серии. Добавлена 9-я серия. Приятного просмотра!
[Профиль] [ЛС]

Grandfather61 ®

Пол: Мужской

Стаж: 1 год 5 месяцев

Сообщений: 641

Создавать темы 26-Авг-2017 05:57 (спустя 6 дней)

[Цитировать]

Раздача обновлена. Добавлена 10-я серия. Приятного просмотра!
[Профиль] [ЛС]
Показать сообщения:    
Ответить на тему

Текущее время: 19-Дек 03:00

Часовой пояс: UTC ± 0



Вы не можете начинать темы
Вы не можете отвечать на сообщения
Вы не можете редактировать свои сообщения
Вы не можете удалять свои сообщения
Вы не можете голосовать в опросах
Вы не можете прикреплять файлы к сообщениям
Вы можете скачивать файлы