Пространство / Экспансия / The Expanse / Сезон: 1 / Серии: 1-10 из 10 (Роберт Либерман / Robert Lieberman) [2015, США, Фантастика, детектив, WEB-DL 1080p] MVO (LostFilm) + Original + Subs (Rus, Eng)

Ответить на тему
Статистика раздачи
Размер:  17,72 GB   |    Зарегистрирован:  11 месяцев   |    Скачан:  0 раз

Полного источника не было: Никогда

 
     
 
 
 
Автор Сообщение

Grandfather61 ®

Пол: Мужской

Стаж: 1 год 5 месяцев

Сообщений: 641

Создавать темы 14-Дек-2017 05:47

[Цитировать]

--Пространство / Экспансия / The Expanse-- Год выпуска: 2015
Страна: США
Жанр: Фантастика, детектив
Продолжительность: ~ 00:43:00-Перевод: Профессиональный (многоголосый закадровый) LostFilm-Режиссёр: Роберт Либерман / Robert Lieberman-В ролях: Шоре Агдашлу, Кэс Анвар, Уэс Чэтэм, Томас Джейн, Стивен Стрейт, Илайс Туфексис, Джейн Моффат, Сара Митич, Майкл Мюррей, Джо Делфин.-Описание: Через двести лет от дня сегодняшнего некий сыщик, привыкший всё доводить до конца при любых обстоятельствах, в рамках расследования дела об исчезновении молодой женщины оказывается на борту звездолета, капитан которого решает помочь детективу в его непростом деле. Величайший заговор в истории человечества гарантируется, как и его непременное раскрытие.- --Качество: WEB-DL 1080p
Контейнер: MKV
Видео: H.264, 1920x1080 (16:9), 23,976 fps, ~5000 kbps, 0.100 bit/pixel
Аудио # 1: AC3, 48 kHz, 6 ch, 384 kbps - LostFilm
Аудио # 2 : AC3, 48 kHz, 6 ch, 384 kbps - оригинал
Субтитры: Русские (OmskBird), английские

Релиз

Релиз: Skyns61
Работа со звуком: Skyns61
Дорожка #1 получена наложением выделенных голосов от «LostFilm» на центр оригинального AC3
Подготовка субтитров: Skyns61

Список серий

01. Дульсинея (Dulcinea)
02. Великая пустота (The Big Empty)
03. Не забудем "Кент" (Remember the Cant)
04. Ближний бой (CQB)
05. И снова к Палачу (Back to the Butcher)
06. На дне (Rock Bottom)
07. Ветряные мельницы (Windmills)
08. Трофей (Salvage)
09. Критическая масса (Critical Mass)
10. Пробуждение Левиафана (Leviathan Wakes)

MediaInfo

Общее
Уникальный идентификатор : 244172712823589046334118343447539894094 (0xB7B1F4344AE6E72C845C44B2BA54474E)
Полное имя : G:\Films\The.Expanse.S01.1080p.WEB-DL\The.Expanse.S01E04.1080p.WEB-DL.LostFilm.DD5.1.mkv
Формат : Matroska
Версия формата : Version 4 / Version 2
Размер файла : 1,78 Гбайт
Продолжительность : 42 м.
Общий поток : 5988 Кбит/сек
Дата кодирования : UTC 2015-12-30 08:23:04
Программа кодирования : mkvmerge v8.6.1 ('Flying') 64bit
Библиотека кодирования : libebml v1.3.3 + libmatroska v1.4.4
Attachements : small_cover.jpg / small_cover_land.jpg / cover.jpg / cover_land.jpg
DURATION : 00:41:57.741000000
NUMBER_OF_FRAMES : 497
NUMBER_OF_BYTES : 30800
_STATISTICS_WRITING_APP : mkvmerge v8.6.1 ('Flying') 64bit
_STATISTICS_WRITING_DATE_UTC : 2015-12-30 08:23:04
_STATISTICS_TAGS : BPS DURATION NUMBER_OF_FRAMES NUMBER_OF_BYTES
Видео
Идентификатор : 1
Формат : AVC
Формат/Информация : Advanced Video Codec
Профиль формата : [email protected]
Параметр CABAC формата : Да
Параметр ReFrames формата : 4 кадра
Идентификатор кодека : V_MPEG4/ISO/AVC
Продолжительность : 42 м.
Битрейт : 5101 Кбит/сек
Ширина : 1920 пикселей
Высота : 1080 пикселей
Соотношение сторон : 16:9
Режим частоты кадров : Постоянный
Частота кадров : 23,976 кадра/сек
Цветовое пространство : YUV
Субдискретизация насыщенности : 4:2:0
Битовая глубина : 8 бит
Тип развёртки : Прогрессивная
Бит/(Пиксели*Кадры) : 0.103
Размер потока : 1,52 Гбайт (85%)
Язык : English
Default : Да
Forced : Нет
colour_range : Limited
Основные цвета : BT.709
Характеристики трансфера : BT.709
Коэффициенты матрицы : BT.709
Аудио #1
Идентификатор : 2
Формат : AC-3
Формат/Информация : Audio Coding 3
Расширение режима : CM (complete main)
Параметр Endianness формата : Big
Идентификатор кодека : A_AC3
Продолжительность : 42 м.
Вид битрейта : Постоянный
Битрейт : 384 Кбит/сек
Каналы : 6 каналов
Расположение каналов : Front: L C R, Side: L R, LFE
Частота : 48,0 КГц
Метод сжатия : С потерями
Размер потока : 117 Мбайт (6%)
Заголовок : LostFilm 5.1
Язык : Russian
Default : Да
Forced : Нет
Аудио #2
Идентификатор : 3
Формат : AC-3
Формат/Информация : Audio Coding 3
Расширение режима : CM (complete main)
Параметр Endianness формата : Big
Идентификатор кодека : A_AC3
Продолжительность : 42 м.
Вид битрейта : Постоянный
Битрейт : 384 Кбит/сек
Каналы : 6 каналов
Расположение каналов : Front: L C R, Side: L R, LFE
Частота : 48,0 КГц
Метод сжатия : С потерями
Размер потока : 117 Мбайт (6%)
Заголовок : original 5.1
Язык : English
Default : Нет
Forced : Нет
Текст #1
Идентификатор : 4
Формат : UTF-8
Идентификатор кодека : S_TEXT/UTF8
Идентификатор кодека/Информация : UTF-8 Plain Text
Заголовок : rus (OmskBird)
Язык : Russian
Default : Нет
Forced : Нет
Текст #2
Идентификатор : 5
Формат : UTF-8
Идентификатор кодека : S_TEXT/UTF8
Идентификатор кодека/Информация : UTF-8 Plain Text
Заголовок : CC
Язык : English
Default : Нет
Forced : Нет

Скриншоты

[freetreker.nl].t393.torrent 
Торрент: Зарегистрирован [ 2017-12-14 05:47 ] · D6A865F7F37E8B1F4DF78AA0DB01F0A7CB7D5978

Скачать .torrent

Скачать

46 KB

Статус: проверено
Скачан: 0 раз
Размер: 17,72 GB
terms.php
Похожие темы:
[Профиль] [ЛС]
Показать сообщения:    
Ответить на тему

Текущее время: 12-Дек 07:41

Часовой пояс: UTC ± 0



Вы не можете начинать темы
Вы не можете отвечать на сообщения
Вы не можете редактировать свои сообщения
Вы не можете удалять свои сообщения
Вы не можете голосовать в опросах
Вы не можете прикреплять файлы к сообщениям
Вы можете скачивать файлы