Игра престолов / Game of Thrones / Сезон: 7 / Серии: 1-7 из 7 (Алан Тейлор, Даниэль Минахан, Дэвид Наттер) [2017, США, Фэнтези, Драма, Приключения, Экранизация, WEB-DL 1080p] Dub (Amedia - Кравец-рекордз) + 6хMVO + Original Eng + Subs (Rus, Eng)

Ответить на тему
Статистика раздачи
Размер:  39,88 GB   |    Зарегистрирован:  10 месяцев 11 дней   |    Скачан:  0 раз

Полного источника не было: 8 месяцев 28 дней

 
     
 
 
 
Автор Сообщение

Grandfather61 ®

Пол: Мужской

Стаж: 1 год

Сообщений: 558

Создавать темы 23-Июл-2017 04:32

[Цитировать]

--Игра престолов / Game of Thrones-- Страна: США, Великобритания
Жанр: Фэнтези, драма, приключения, экранизация
Продолжительность: ~00:55:00
Перевод 1: Профессиональный (дублированный) (Amedia) Кравец-рекордз
Перевод 2: Профессиональный (многоголосый закадровый) LostFilm
Перевод 3: Профессиональный (многоголосый закадровый) AlexFilm
Перевод 4: Профессиональный (многоголосый закадровый) NewStudio
Перевод 5: Профессиональный (многоголосый закадровый) FOX
Перевод 6: Профессиональный (многоголосый закадровый) OMSKBIRD records
Перевод 7: Профессиональный (многоголосый закадровый) UATeam
Доп. инфо о переводе: В дубляже, отсутствует перевод "Ранее в сериале"
Оригинальная аудиодорожка: есть
Русские субтитры: есть-Режиссёр: Алан Тейлор, Даниэль Минахан, Дэвид Наттер, Брайан Кирк, Тимоти Ван Паттен, Дэвид Петрарка-В ролях: Лена Хиди, Питер Динклэйдж, Мишель Фэйрли, Эмилия Кларк, Кит Харингтон, Николай Костер-Валдау, Иэн Глен, Эйден Гиллен, Элфи Оуэн-Аллен, Мэйси Уильямс, Софи Тернер, Сибель Кекилли, Джеймс Космо, Стивен Диллэйн, Гетин Энтони, Гвендолин Кристи, Натали Дормер и др.-Описание: К концу подходит время благоденствия, и лето, длившееся почти десятилетие, угасает. Вокруг средоточия власти Семи королевств, Железного трона, зреет заговор, и в это непростое время король решает искать поддержки у друга юности Эддарда Старка. В мире, где все — от короля до наемника — рвутся к власти, плетут интриги и готовы вонзить нож в спину, есть место и благородству, состраданию и любви. Между тем, никто не замечает пробуждение тьмы из легенд далеко на Севере — и лишь Стена защищает живых к югу от нее.-О сериале писал:
«Игра престолов» — это вечная история об испытаниях на прочность и надежде на лучшее, жажде власти и бескорыстии, насилии и искренней любви, дружбе и предательстве, интригах и честности, жестокости и милосердии... Удивительно проникновенная и совершенно не детская энциклопедия человеческой «грязи» и добродетели. Сюжет разворачивается на фоне политических интриг и гражданской войны, вызванных борьбой за власть знатных домов Вестероса. Роберт Баратеон (Марк Эдди), король объединенных семи королевств, просит помощи у старого друга и верного слуги Эддарда Старка (Шон Бин), уговаривая его стать новой «десницей» короля. Старк подозревает, что его предшественник был убит, он пытается расследовать обстоятельства его гибели и защитить своего суверена. Между тем далеко от человеческой подлости и глупости пробуждается легендарная тьма, которая грозит гибелью всему живому. Между ней и миром людей стоит лишь стена да немногочисленное братство ночного дозора. «Игра престолов» является долгожданной экранизацией культового произведения мастера фэнтези Джорджа Р. Р. Мартина «Песнь Льда и Огня». В январе 2007 года права на экранизацию книг приобрел кабельный канал HBO. Необычайно темная атмосфера картины, хитросплетение интриг и трагических событий привлекают зрителя даже больше чем экзотическая обстановка или магия. Элементы фэнтези-реальности воспринимаются скорее как дополнение к сюжету. Сериал приобрел необычайно широкий для HBO размах — съемки проходят в Северной Ирландии и на Мальте, были приглашены звезды первой величины Шон Бин и Лена Хиди, а бюджет проекта превысил бюджет самого дорогого проекта компании — сериала «Рим».- -Релиз от: -Ссылка на предыдущие и альтернативные раздачи-Качество: WEB-DL 1080p
Формат: MKV
Видео кодек: H.264
Аудио кодек: AC3
Видео: 1920x1080 (16:9), 23.976 fps, ~7500 Kbps, 0.151 bit/pixel
Aудио#1: Russian: 48 kHz, AC3, 2/0 (L,R) ch, ~192.00 kbps avg | (Amedia) Кравец-рекордз
Aудио#2: Russian: 48 kHz, AC3, 3/2 (L,C,R,l,r) + LFE ch, ~640.00 kbps avg | LostFilm
Aудио#3: Russian: 48 kHz, AC3, 3/2 (L,C,R,l,r) + LFE ch, ~640.00 kbps avg | AlexFilm
Aудио#4: Russian: 48 kHz, AC3, 3/2 (L,C,R,l,r) + LFE ch, ~640.00 kbps avg | NewStudio
Aудио#5: Russian: 48 kHz, AC3, 3/2 (L,C,R,l,r) + LFE ch, ~640.00 kbps avg | FOX
Aудио#6: Russian: 48 kHz, AC3, 3/2 (L,C,R,l,r) + LFE ch, ~640.00 kbps avg | OMSKBIRD records
Aудио#7: Ukrainian: 48 kHz, AC3, 3/2 (L,C,R,l,r) + LFE ch, ~640.00 kbps avg | UATeam
Aудио#8: English: 48 kHz, E-AC3, 3/2 (L,C,R,l,r) + LFE ch, ~640.00 kbps avg
Субтитры: Russian (Forced), Russian (Full от Amedia), Russian (Full от 7kingdoms), English (SDH)
Реклама: Рекламы нет!-
-Релиз / Работа со звуком от: serial_M
-Запись FOX с тв: Beer kolesik Drinkers
-Сохранены и подписаны оригинальные главы.
-This release is sourced from Amazon.
-При поддержке: Игорь Волков, Grandfather61, Beer kolesik Drinkers, djdjon, Plazik, MessaFan.

Список серий

01. Dragonstone / Драконий камень
02. Stormborn / Бурерождённая
03. The Queen's Justice / Правосудие королевы
04. The Spoils of War / Трофеи войны
05. Eastwatch / Восточный Дозор
06. За Стеной (Beyond the Wall)
07. Дракон и Волк (The Dragon and the Wolf)

MediaInfo

General
Unique ID : 240998882077867291427959369947859129441 (0xB54EB2445F052630AE01F79D45001461)
Complete name : G:\Films\Game.of.Thrones.S07.WEB-DL.1080p.Rus.Ukr.Eng\Game.of.Thrones.S07E01.WEB-DL.1080p.Rus.Ukr.Eng.mkv
Format : Matroska
Format version : Version 4 / Version 2
File size : 5.24 GiB
Duration : 1h 1mn
Overall bit rate mode : Variable
Overall bit rate : 12.2 Mbps
Movie name : Game of Thrones 7x01
Encoded date : UTC 2017-08-15 11:11:02
Writing application : mkvmerge v13.0.0 ('The Juggler') 64bit
Writing library : libebml v1.3.4 + libmatroska v1.4.5
Video
ID : 1
Format : AVC
Format/Info : Advanced Video Codec
Format profile : High@L4
Format settings, CABAC : Yes
Format settings, ReFrames : 4 frames
Codec ID : V_MPEG4/ISO/AVC
Duration : 1h 1mn
Bit rate mode : Variable
Bit rate : 7 524 Kbps
Maximum bit rate : 15.0 Mbps
Width : 1 920 pixels
Height : 1 080 pixels
Display aspect ratio : 16:9
Frame rate mode : Constant
Frame rate : 23.976 (24000/1001) fps
Color space : YUV
Chroma subsampling : 4:2:0
Bit depth : 8 bits
Scan type : Progressive
Bits/(Pixel*Frame) : 0.151
Stream size : 3.23 GiB (62%)
Title : Game of Thrones 7x01
Language : English
Default : Yes
Forced : No
Color range : Limited
Color primaries : BT.709
Transfer characteristics : BT.709
Matrix coefficients : BT.709
Audio #1
ID : 2
Format : AC-3
Format/Info : Audio Coding 3
Mode extension : CM (complete main)
Format settings, Endianness : Big
Codec ID : A_AC3
Duration : 1h 1mn
Bit rate mode : Constant
Bit rate : 192 Kbps
Channel(s) : 2 channels
Channel positions : Front: L R
Sampling rate : 48.0 KHz
Frame rate : 31.250 fps (1536 spf)
Compression mode : Lossy
Stream size : 84.4 MiB (2%)
Title : AC3 2.0 @ 192 kbps - DUB, Кравец-рекордз
Language : Russian
Default : Yes
Forced : No
Audio #2
ID : 3
Format : AC-3
Format/Info : Audio Coding 3
Mode extension : CM (complete main)
Format settings, Endianness : Big
Codec ID : A_AC3
Duration : 1h 1mn
Bit rate mode : Constant
Bit rate : 640 Kbps
Channel(s) : 6 channels
Channel positions : Front: L C R, Side: L R, LFE
Sampling rate : 48.0 KHz
Frame rate : 31.250 fps (1536 spf)
Compression mode : Lossy
Stream size : 281 MiB (5%)
Title : AC3 5.1 @ 640 kbps - LostFilm
Language : Russian
Default : No
Forced : No
Audio #3
ID : 4
Format : AC-3
Format/Info : Audio Coding 3
Mode extension : CM (complete main)
Format settings, Endianness : Big
Codec ID : A_AC3
Duration : 1h 1mn
Bit rate mode : Constant
Bit rate : 640 Kbps
Channel(s) : 6 channels
Channel positions : Front: L C R, Side: L R, LFE
Sampling rate : 48.0 KHz
Frame rate : 31.250 fps (1536 spf)
Compression mode : Lossy
Stream size : 281 MiB (5%)
Title : AC3 5.1 @ 640 kbps - AlexFilm
Language : Russian
Default : No
Forced : No
Audio #4
ID : 5
Format : AC-3
Format/Info : Audio Coding 3
Mode extension : CM (complete main)
Format settings, Endianness : Big
Codec ID : A_AC3
Duration : 1h 1mn
Bit rate mode : Constant
Bit rate : 640 Kbps
Channel(s) : 6 channels
Channel positions : Front: L C R, Side: L R, LFE
Sampling rate : 48.0 KHz
Frame rate : 31.250 fps (1536 spf)
Compression mode : Lossy
Stream size : 281 MiB (5%)
Title : AC3 5.1 @ 640 kbps - NewStudio
Language : Russian
Default : No
Forced : No
Audio #5
ID : 6
Format : AC-3
Format/Info : Audio Coding 3
Mode extension : CM (complete main)
Format settings, Endianness : Big
Codec ID : A_AC3
Duration : 1h 1mn
Bit rate mode : Constant
Bit rate : 640 Kbps
Channel(s) : 6 channels
Channel positions : Front: L C R, Side: L R, LFE
Sampling rate : 48.0 KHz
Frame rate : 31.250 fps (1536 spf)
Compression mode : Lossy
Stream size : 281 MiB (5%)
Title : AC3 5.1 @ 640 kbps - FOX
Language : Russian
Default : No
Forced : No
Audio #6
ID : 7
Format : AC-3
Format/Info : Audio Coding 3
Mode extension : CM (complete main)
Format settings, Endianness : Big
Codec ID : A_AC3
Duration : 1h 1mn
Bit rate mode : Constant
Bit rate : 640 Kbps
Channel(s) : 6 channels
Channel positions : Front: L C R, Side: L R, LFE
Sampling rate : 48.0 KHz
Frame rate : 31.250 fps (1536 spf)
Compression mode : Lossy
Stream size : 281 MiB (5%)
Title : AC3 5.1 @ 640 kbps - OmskBird
Language : Russian
Default : No
Forced : No
Audio #7
ID : 8
Format : AC-3
Format/Info : Audio Coding 3
Mode extension : CM (complete main)
Format settings, Endianness : Big
Codec ID : A_AC3
Duration : 1h 1mn
Bit rate mode : Constant
Bit rate : 640 Kbps
Channel(s) : 6 channels
Channel positions : Front: L C R, Side: L R, LFE
Sampling rate : 48.0 KHz
Frame rate : 31.250 fps (1536 spf)
Compression mode : Lossy
Stream size : 281 MiB (5%)
Title : AC3 5.1 @ 640 kbps - UATeam
Language : Ukrainian
Default : No
Forced : No
Audio #8
ID : 9
Format : E-AC-3
Format/Info : Audio Coding 3
Format settings, Endianness : Big
Codec ID : A_EAC3
Duration : 1h 1mn
Bit rate mode : Constant
Bit rate : 640 Kbps
Channel(s) : 6 channels
Channel positions : Front: L C R, Side: L R, LFE
Sampling rate : 48.0 KHz
Frame rate : 187.500 fps (256 spf)
Compression mode : Lossy
Delay relative to video : 23ms
Stream size : 281 MiB (5%)
Title : AC3 5.1 @ 640 kbps
Language : English
Default : No
Forced : No
Text #1
ID : 10
Format : UTF-8
Codec ID : S_TEXT/UTF8
Codec ID/Info : UTF-8 Plain Text
Duration : 1mn 54s
Bit rate : 148 bps
Count of elements : 35
Stream size : 2.08 KiB (0%)
Title : Forced
Language : Russian
Default : Yes
Forced : Yes
Text #2
ID : 11
Format : UTF-8
Codec ID : S_TEXT/UTF8
Codec ID/Info : UTF-8 Plain Text
Duration : 59mn 23s
Bit rate : 77 bps
Count of elements : 640
Stream size : 33.7 KiB (0%)
Title : Full, Amedia
Language : Russian
Default : No
Forced : No
Text #3
ID : 12
Format : UTF-8
Codec ID : S_TEXT/UTF8
Codec ID/Info : UTF-8 Plain Text
Duration : 59mn 34s
Bit rate : 84 bps
Count of elements : 670
Stream size : 36.9 KiB (0%)
Title : Full, 7kingdoms
Language : Russian
Default : No
Forced : No
Text #4
ID : 13
Format : UTF-8
Codec ID : S_TEXT/UTF8
Codec ID/Info : UTF-8 Plain Text
Duration : 1h 1mn
Bit rate : 55 bps
Count of elements : 758
Stream size : 24.9 KiB (0%)
Title : Full, SDH
Language : English
Default : No
Forced : No
Menu
00:00:00.000 : en:TV Rating
00:00:02.327 : en:Previously On
00:02:28.327 : en:Studio Logo
00:02:33.327 : en:Walder Frey holds a feast for his family; The Twins
00:06:26.327 : en:Opening Credits
00:08:13.327 : en:Bran and Meera arrive at the Wall; The Wall
00:11:40.327 : en:Jon prepares his men for the coming Winter; Winterfell
00:16:40.327 : en:Jon receives a message from King's Landing; Winterfell
00:19:30.327 : en:Jaime tells Cersei they need allies; King's Landing
00:25:08.327 : en:Euron makes Cersei an offer; King's Landing
00:29:06.327 : en:Sam talks with Archmaester Marwyn about the White Walkers; Oldtown
00:35:59.327 : en:Littlefinger asks Sansa if she is happy; Winterfell
00:38:07.327 : en:Arya runs into a group of soldiers; The Riverlands
00:42:16.327 : en:The Brotherhood Without Banners travel north; The North
00:51:31.327 : en:Sam discovers something in a book; Oldtown
00:54:10.327 : en:Daenerys comes home; Dragonstone
00:59:46.327 : en:End Credits
01:01:04.327 : en:Next On
01:01:24.327 : en:Online Extra

Скриншоты:

Внимание! Раздача ведётся путём добавления новых серий.

Внимание! Раздача ведётся путём добавления новых серий; при каждом добавлении создётся новый торрент. Чтобы начать докачку новой серии, пользователям необходимо сделать следующее:
Остановить скачивание.
Удалить старый торрент у себя из клиента (старые серии удалять не надо).
Скачать новый торрент и запустить его у себя в клиенте вместо старого, при этом указать клиенту путь в старую папку куда и должно происходить скачивание новых серий.
Ваш клиент при этом должен произвести хеширование (проверку) старой папки (если не производит сам - помогите ему сделать это), и будет докачивать только те серии которых у вас ещё нет. Старые серии при этом не удаляются, а продолжают раздаваться!
Eсли вы уже удалили старые серии, то предотвратить повторную закачку старых серий можно, отжав галочку в соответсвующих местах при запуске нового торрента. По возможности, желательно не удалять старые серии как можно дольше чтобы релизёр не столько продолжал раздавать старые серии, а смог сконцентрироваться на новых.
-Список изменений:
обновление от 07.08.2017: заменена 2 серия: в озвучке LostFilm возвращен мужской голос, озвучка FOX переделана с нормальных голосов
обновление от 12.08.2017: замена 3 серии - в дорожке LostFilm вернули 2 мужских голоса
обновление от 21.08.2017:
- замена 2 серии - в дорожке LostFilm вернули голос Дайнерис, добавлена озвучка AlexFilm. Замена 3 серии - в дорожке LostFilm возвращен голос Дайнерис
- замена 4 серии - в дорожке LostFilm вернули голос Дайнерис.
- Релиз 2-5 серии постоянный
обновление от 04.09.2017:
- добавлена 7 серия. статус 1, 7 серии временный - в озвучке LostFilm не тот голос Тириона Ланистера / Петира Бейлиша
- замена 6 серии - пропер дорожки LostFilm.
обновление от 06.09.2017:
замена 7 серии - в озвучке LostFilm возвращен оригинальный голос Тириона Ланистера / Петира Бейлиша.
[freetreker.nl].t40.torrent 
 ЗОЛОТАЯ РАЗДАЧА! СКАЧАННОЕ НЕ ЗАСЧИТЫВАЕТСЯ! 
Торрент: Зарегистрирован [ 2017-09-08 06:05 ] · 10EE4DC9D71558795A69283162489D9306CA72B2

Скачать .torrent

Скачать

101 KB

Статус: проверено
Скачан: 0 раз
Размер: 39,88 GB
terms.php
Похожие темы:
[Профиль] [ЛС]
Показать сообщения:    
Ответить на тему

Текущее время: 20-Июл 03:07

Часовой пояс: UTC ± 0



Вы не можете начинать темы
Вы не можете отвечать на сообщения
Вы не можете редактировать свои сообщения
Вы не можете удалять свои сообщения
Вы не можете голосовать в опросах
Вы не можете прикреплять файлы к сообщениям
Вы можете скачивать файлы