По ту сторону / Counterpart / Сезон 1 / Серии 1-10 (10) (Джастин Маркс) [2018, США, фантастика, триллер, WEB-DL 1080p] MVO (OMSKBIRD) Original + Eng Subs

Ответить на тему
Статистика раздачи
Размер:  25,45 GB   |    Зарегистрирован:  8 месяцев 17 дней   |    Скачан:  0 раз

Полного источника не было: 8 месяцев 5 дней

 
     
 
 
 
Автор Сообщение

Gater ®

Пол: Не указан

Стаж: 1 год 5 месяцев

Сообщений: 1582

Создавать темы 20-Дек-2017 15:25

[Цитировать]

-По ту сторону / Counterpart- Год выпуска • 2018
Страна • США
Жанр • Фантастика, триллер
Продолжительность • ~60 мин.
Перевод
• Профессиональный (многоголосый, закадровый) "OMSKBIRD records"
-Создатель • Джастин Маркс
В ролях • Дж.К. Симмонс, Гарри Ллойд, Назанин Бониади, Оливия Уильямс, Сара Серайокко, Ульрих Томсен, Бернхард Форхер, Кеннет Чои и др.-Описание • Говард Силке, незначительный винтик в бюрократической системе, обнаруживает, что агентство, в котором он работает, на самом деле занимается охраной переходов в параллельное измерение.-Реклама: Присутствует.-
Качество: Amazon WEB-DL 1080p
Формат: MKV
Видео: MPEG-4 AVC / ~ 6000 kbps / 1920х1080p / 23.976 fps / 16:9 / ~ 0.120 bit/pixel / High Level 4.0
Аудио:
Русский / Dolby Digital 5.1 / 48 kHz / 384 kbps
English / Dolby Digital 5.1 / 48 kHz / 384 kbps
Субтитры: Eng / SRT-

- -

MediaInfo


General
Unique ID : 221177449526748108694723466051917541344 (0xA6653A30C533DC8F9202AD1798316FE0)
Complete name : H:\Мои Документы\Видео\РАЗДАЧИ\ДВОЙНИК\Counterpart S01 WEB-DL 1080p (OMSKBIRD)\Counterpart S01E01 WEB-DL 1080p (OMSKBIRD).mkv
Format : Matroska
Format version : Version 2
File size : 2.64 GiB
Duration : 56 min 42 s
Overall bit rate mode : Variable
Overall bit rate : 6 655 kb/s
Encoded date : UTC 2017-12-20 15:20:05
Writing application : mkvmerge v4.0.0 ('The Stars were mine') сборка от Jun 6 2010 16:18:42
Writing library : libebml v1.0.0 + libmatroska v1.0.0
Video
ID : 1
Format : AVC
Format/Info : Advanced Video Codec
Format profile : [email protected]
Format settings, CABAC : Yes
Format settings, RefFrames : 4 frames
Codec ID : V_MPEG4/ISO/AVC
Duration : 56 min 42 s
Bit rate mode : Variable
Bit rate : 5 755 kb/s
Maximum bit rate : 15.0 Mb/s
Width : 1 920 pixels
Height : 1 080 pixels
Display aspect ratio : 16:9
Frame rate mode : Constant
Frame rate : 23.976 (24000/1001) FPS
Color space : YUV
Chroma subsampling : 4:2:0
Bit depth : 8 bits
Scan type : Progressive
Bits/(Pixel*Frame) : 0.116
Stream size : 2.28 GiB (86%)
Default : No
Forced : No
Color range : Limited
Color primaries : BT.709
Transfer characteristics : BT.709
Matrix coefficients : BT.709
Audio #1
ID : 2
Format : AC-3
Format/Info : Audio Coding 3
Format settings, Endianness : Big
Codec ID : A_AC3
Duration : 56 min 42 s
Bit rate mode : Constant
Bit rate : 384 kb/s
Channel(s) : 6 channels
Channel positions : Front: L C R, Side: L R, LFE
Sampling rate : 48.0 kHz
Frame rate : 31.250 FPS (1536 SPF)
Bit depth : 16 bits
Compression mode : Lossy
Delay relative to video : 8 ms
Stream size : 156 MiB (6%)
Language : Russian
Service kind : Complete Main
Default : Yes
Forced : No
Audio #2
ID : 3
Format : AC-3
Format/Info : Audio Coding 3
Format settings, Endianness : Big
Codec ID : A_AC3
Duration : 56 min 42 s
Bit rate mode : Constant
Bit rate : 384 kb/s
Channel(s) : 6 channels
Channel positions : Front: L C R, Side: L R, LFE
Sampling rate : 48.0 kHz
Frame rate : 31.250 FPS (1536 SPF)
Bit depth : 16 bits
Compression mode : Lossy
Delay relative to video : 8 ms
Stream size : 156 MiB (6%)
Language : English
Service kind : Complete Main
Default : No
Forced : No
Text
ID : 4
Format : UTF-8
Codec ID : S_TEXT/UTF8
Codec ID/Info : UTF-8 Plain Text
Language : English
Default : No
Forced : No
[freetreker.nl].t401.torrent 
Торрент: Зарегистрирован [ 2018-04-01 18:07 ] · 8D69ACBA9F15B0F5EEE04A986271DEAFB1337D1B

Скачать .torrent

Скачать

65 KB

Статус: проверено
Скачан: 0 раз
Размер: 25,45 GB
terms.php
Похожие темы:


Последний раз редактировалось: Gater (2018-04-01 18:07), всего редактировалось 8 раз(а)
[Профиль] [ЛС]

Gater ®

Пол: Не указан

Стаж: 1 год 5 месяцев

Сообщений: 1582

Создавать темы 28-Янв-2018 19:50 (спустя 1 месяц 8 дней)

[Цитировать]

+2
[Профиль] [ЛС]

Gater ®

Пол: Не указан

Стаж: 1 год 5 месяцев

Сообщений: 1582

Создавать темы 05-Фев-2018 06:19 (спустя 7 дней)

[Цитировать]

+3
[Профиль] [ЛС]

Gater ®

Пол: Не указан

Стаж: 1 год 5 месяцев

Сообщений: 1582

Создавать темы 11-Фев-2018 17:44 (спустя 6 дней)

[Цитировать]

+4
[Профиль] [ЛС]

Gater ®

Пол: Не указан

Стаж: 1 год 5 месяцев

Сообщений: 1582

Создавать темы 18-Фев-2018 16:47 (спустя 6 дней)

[Цитировать]

+5
[Профиль] [ЛС]

Gater ®

Пол: Не указан

Стаж: 1 год 5 месяцев

Сообщений: 1582

Создавать темы 25-Фев-2018 18:33 (спустя 7 дней)

[Цитировать]

+6
[Профиль] [ЛС]

Gater ®

Пол: Не указан

Стаж: 1 год 5 месяцев

Сообщений: 1582

Создавать темы 05-Мар-2018 07:11 (спустя 7 дней)

[Цитировать]

+7
[Профиль] [ЛС]

Gater ®

Пол: Не указан

Стаж: 1 год 5 месяцев

Сообщений: 1582

Создавать темы 11-Мар-2018 22:57 (спустя 6 дней)

[Цитировать]

Добавлена 8-ая серия.
[Профиль] [ЛС]

Gater ®

Пол: Не указан

Стаж: 1 год 5 месяцев

Сообщений: 1582

Создавать темы 19-Мар-2018 07:20 (спустя 7 дней)

[Цитировать]

Добавлена 9-ая серия.
[Профиль] [ЛС]

Gater ®

Пол: Не указан

Стаж: 1 год 5 месяцев

Сообщений: 1582

Создавать темы 01-Апр-2018 18:07 (спустя 13 дней)

[Цитировать]

Добавлена 10-ая серия.
Финал сезона.
[Профиль] [ЛС]
Показать сообщения:    
Ответить на тему

Текущее время: 19-Дек 03:01

Часовой пояс: UTC ± 0



Вы не можете начинать темы
Вы не можете отвечать на сообщения
Вы не можете редактировать свои сообщения
Вы не можете удалять свои сообщения
Вы не можете голосовать в опросах
Вы не можете прикреплять файлы к сообщениям
Вы можете скачивать файлы