Игра престолов / Game of Thrones / Сезон: 7 / Серии: 1-7 из 7 (Алан Тейлор, Даниэль Минахан, Дэвид Наттер) [2017, США, Фэнтези, Драма, Приключения, Экранизация, BDRip 720p] Dub + 7хMVO + Original + Subs (Rus, Eng)

Ответить на тему
Статистика раздачи
Размер:  56,23 GB   |    Зарегистрирован:  3 месяца 29 дней   |    Скачан:  0 раз

Полного источника не было: 1 месяц

 
     
 
 
 
Автор Сообщение

Grandfather61 ®

Пол: Мужской

Стаж: 9 месяцев 11 дней

Сообщений: 507

Создавать темы 22-Дек-2017 08:44

[Цитировать]

--Игра престолов / Game of Thrones-- Страна: США, Великобритания
Жанр: Фэнтези, драма, приключения, экранизация
Продолжительность: ~00:55:00
Перевод:
Профессиональный (дублированный) (Amedia) Кравец-рекордз
Профессиональный (многоголосый закадровый) LostFilm
Профессиональный (многоголосый закадровый) FocusStudio
Профессиональный (многоголосый закадровый) AlexFilm
Профессиональный (многоголосый закадровый) FOX
Профессиональный (многоголосый закадровый) NewStudio
Профессиональный (многоголосый закадровый) OMSKBIRD records
Профессиональный (многоголосый закадровый) UATeam-Режиссёр: Алан Тейлор, Даниэль Минахан, Дэвид Наттер, Брайан Кирк, Тимоти Ван Паттен, Дэвид Петрарка-В ролях: Лена Хиди, Питер Динклэйдж, Мишель Фэйрли, Эмилия Кларк, Кит Харингтон, Николай Костер-Валдау, Иэн Глен, Эйден Гиллен, Элфи Оуэн-Аллен, Мэйси Уильямс, Софи Тернер, Сибель Кекилли, Джеймс Космо, Стивен Диллэйн, Гетин Энтони, Гвендолин Кристи, Натали Дормер и др.-Описание: К концу подходит время благоденствия, и лето, длившееся почти десятилетие, угасает. Вокруг средоточия власти Семи королевств, Железного трона, зреет заговор, и в это непростое время король решает искать поддержки у друга юности Эддарда Старка. В мире, где все — от короля до наемника — рвутся к власти, плетут интриги и готовы вонзить нож в спину, есть место и благородству, состраданию и любви. Между тем, никто не замечает пробуждение тьмы из легенд далеко на Севере — и лишь Стена защищает живых к югу от нее.-О сериале писал:
«Игра престолов» — это вечная история об испытаниях на прочность и надежде на лучшее, жажде власти и бескорыстии, насилии и искренней любви, дружбе и предательстве, интригах и честности, жестокости и милосердии... Удивительно проникновенная и совершенно не детская энциклопедия человеческой «грязи» и добродетели. Сюжет разворачивается на фоне политических интриг и гражданской войны, вызванных борьбой за власть знатных домов Вестероса. Роберт Баратеон (Марк Эдди), король объединенных семи королевств, просит помощи у старого друга и верного слуги Эддарда Старка (Шон Бин), уговаривая его стать новой «десницей» короля. Старк подозревает, что его предшественник был убит, он пытается расследовать обстоятельства его гибели и защитить своего суверена. Между тем далеко от человеческой подлости и глупости пробуждается легендарная тьма, которая грозит гибелью всему живому. Между ней и миром людей стоит лишь стена да немногочисленное братство ночного дозора. «Игра престолов» является долгожданной экранизацией культового произведения мастера фэнтези Джорджа Р. Р. Мартина «Песнь Льда и Огня». В январе 2007 года права на экранизацию книг приобрел кабельный канал HBO. Необычайно темная атмосфера картины, хитросплетение интриг и трагических событий привлекают зрителя даже больше чем экзотическая обстановка или магия. Элементы фэнтези-реальности воспринимаются скорее как дополнение к сюжету. Сериал приобрел необычайно широкий для HBO размах — съемки проходят в Северной Ирландии и на Мальте, были приглашены звезды первой величины Шон Бин и Лена Хиди, а бюджет проекта превысил бюджет самого дорогого проекта компании — сериала «Рим».- -Ссылка на предыдущие и альтернативные раздачи-Качество: BDRip (CtrlHD)
Формат: MKV
Видео: AVC/H.264, 1280x720 (16:9), 23.976 fps, ~5300 Kbps, 0.239 bit/pixel
Aудио#1: 48 kHz, AC3, 3/2 (L,C,R,l,r) + LFE ch , ~448 kbps - русский, многоголосый закадровый | Кравец-рекордз
Aудио#2: 48 kHz, DTS, 3/2 (L,C,R,l,r) + LFE ch, ~1509 kbps - русский, многоголосый закадровый | LostFilm
Aудио#3: 48 kHz, DTS, 3/2 (L,C,R,l,r) + LFE ch, ~1509 kbps - русский, многоголосый закадровый | FocusStudio
Aудио#4: 48 kHz, DTS, 3/2 (L,C,R,l,r) + LFE ch, ~1509 kbps - русский, многоголосый закадровый | AlexFilm
Aудио#5: 48 kHz, DTS, 3/2 (L,C,R,l,r) + LFE ch, ~1509 kbps - русский, многоголосый закадровый | FOX
Aудио#6: 48 kHz, DTS, 3/2 (L,C,R,l,r) + LFE ch, ~1509 kbps - русский, многоголосый закадровый | NewStudio
Aудио#7: 48 kHz, DTS, 3/2 (L,C,R,l,r) + LFE ch, ~1509 kbps - русский, многоголосый закадровый | OMSKBIRD records
Aудио#8: 48 kHz, DTS, 3/2 (L,C,R,l,r) + LFE ch, ~1509 kbps - украинский, многоголосый закадровый | UATeam
Aудио#9: 48 kHz, DTS, 3/2 (L,C,R,l,r) + LFE ch, ~1509 kbps - английский
Субтитры: Russian (Forced, 7kingdoms, Opel & Westeros.ru, Amedia, AMS), English
Реклама: Рекламы нет! (в том числе и в дубляже вырезана реклама амедиатеки)-
- Релиз: Grandfather61
- Работа со звуком: serial_M
- Запись FOX с тв: Beer kolesik Drinkers
- Работа с субтитрами: Messafan
- За чистые войсы спасибо: AlexFilm, FocusStudio, OmskBird
- Релиз сделан при поддержке serial_M

Список серий

01. Dragonstone / Драконий камень
02. Stormborn / Бурерождённая
03. The Queen's Justice / Правосудие королевы
04. The Spoils of War / Трофеи войны
05. Eastwatch / Восточный Дозор
06. За Стеной (Beyond the Wall)
07. Дракон и Волк (The Dragon and the Wolf)

MediaInfo

General
Unique ID : 175624885627099054103276749325898511451 (0x84201F64150338B498A8D441B7FE745B)
Complete name : E:\Game.Of.Thrones.S07.720p.BDRip.Rus.Ukr.Eng\Game.of.Thrones.S07E01.720p.BDRip.Rus.Ukr.Eng.mkv
Format : Matroska
Format version : Version 4 / Version 2
File size : 7.44 GiB
Duration : 58mn 40s
Overall bit rate : 18.2 Mbps
Movie name : Game of Thrones 7x01 (2017) - Release for Grandfather61
Encoded date : UTC 2017-12-17 12:31:58
Writing application : mkvmerge v18.0.0 ('Apricity') 64-bit
Writing library : libebml v1.3.5 + libmatroska v1.4.8
Video
ID : 1
Format : AVC
Format/Info : Advanced Video Codec
Format profile : High@L4.1
Format settings, CABAC : Yes
Format settings, ReFrames : 9 frames
Codec ID : V_MPEG4/ISO/AVC
Duration : 58mn 40s
Bit rate : 5 282 Kbps
Width : 1 280 pixels
Height : 720 pixels
Display aspect ratio : 16:9
Frame rate mode : Constant
Frame rate : 23.976 (24000/1001) fps
Color space : YUV
Chroma subsampling : 4:2:0
Bit depth : 8 bits
Scan type : Progressive
Bits/(Pixel*Frame) : 0.239
Stream size : 2.16 GiB (29%)
Title : Game of Thrones 7x01 (2017) - Release for Grandfather61
Writing library : x264 core 152 r2851 ba24899
Encoding settings : cabac=1 / ref=9 / deblock=1:-3:-3 / analyse=0x3:0x133 / me=umh / subme=10 / psy=1 / psy_rd=1.05:0.00 / mixed_ref=1 / me_range=28 / chroma_me=1 / trellis=2 / 8x8dct=1 / cqm=0 / deadzone=21,11 / fast_pskip=0 / chroma_qp_offset=-2 / threads=12 / lookahead_threads=1 / sliced_threads=0 / nr=0 / decimate=0 / interlaced=0 / bluray_compat=0 / constrained_intra=0 / bframes=3 / b_pyramid=2 / b_adapt=2 / b_bias=0 / direct=3 / weightb=1 / open_gop=0 / weightp=2 / keyint=240 / keyint_min=23 / scenecut=40 / intra_refresh=0 / rc_lookahead=60 / rc=crf / mbtree=0 / crf=16.0 / qcomp=0.70 / qpmin=0 / qpmax=51 / qpstep=4 / vbv_maxrate=62500 / vbv_bufsize=78125 / crf_max=0.0 / nal_hrd=none / filler=0 / ip_ratio=1.40 / pb_ratio=1.30 / aq=1:0.80
Language : English
Default : Yes
Forced : No
Audio #1
ID : 2
Format : AC-3
Format/Info : Audio Coding 3
Mode extension : CM (complete main)
Format settings, Endianness : Big
Codec ID : A_AC3
Duration : 58mn 40s
Bit rate mode : Constant
Bit rate : 448 Kbps
Channel(s) : 6 channels
Channel positions : Front: L C R, Side: L R, LFE
Sampling rate : 48.0 KHz
Frame rate : 31.250 fps (1536 spf)
Compression mode : Lossy
Stream size : 188 MiB (2%)
Title : Кравец-рекордз
Language : Russian
Default : Yes
Forced : No
Audio #2
ID : 3
Format : DTS
Format/Info : Digital Theater Systems
Mode : 16
Format settings, Endianness : Big
Codec ID : A_DTS
Duration : 58mn 40s
Bit rate mode : Constant
Bit rate : 1 509 Kbps
Channel(s) : 6 channels
Channel positions : Front: L C R, Side: L R, LFE
Sampling rate : 48.0 KHz
Frame rate : 93.750 fps (512 spf)
Bit depth : 24 bits
Compression mode : Lossy
Stream size : 633 MiB (8%)
Title : LostFilm
Language : Russian
Default : No
Forced : No
Audio #3
ID : 4
Format : DTS
Format/Info : Digital Theater Systems
Mode : 16
Format settings, Endianness : Big
Codec ID : A_DTS
Duration : 58mn 40s
Bit rate mode : Constant
Bit rate : 1 509 Kbps
Channel(s) : 6 channels
Channel positions : Front: L C R, Side: L R, LFE
Sampling rate : 48.0 KHz
Frame rate : 93.750 fps (512 spf)
Bit depth : 24 bits
Compression mode : Lossy
Stream size : 633 MiB (8%)
Title : FocusStudio
Language : Russian
Default : No
Forced : No
Audio #4
ID : 5
Format : DTS
Format/Info : Digital Theater Systems
Mode : 16
Format settings, Endianness : Big
Codec ID : A_DTS
Duration : 58mn 40s
Bit rate mode : Constant
Bit rate : 1 509 Kbps
Channel(s) : 6 channels
Channel positions : Front: L C R, Side: L R, LFE
Sampling rate : 48.0 KHz
Frame rate : 93.750 fps (512 spf)
Bit depth : 24 bits
Compression mode : Lossy
Stream size : 633 MiB (8%)
Title : AlexFilm
Language : Russian
Default : No
Forced : No
Audio #5
ID : 6
Format : DTS
Format/Info : Digital Theater Systems
Mode : 16
Format settings, Endianness : Big
Codec ID : A_DTS
Duration : 58mn 40s
Bit rate mode : Constant
Bit rate : 1 509 Kbps
Channel(s) : 6 channels
Channel positions : Front: L C R, Side: L R, LFE
Sampling rate : 48.0 KHz
Frame rate : 93.750 fps (512 spf)
Bit depth : 24 bits
Compression mode : Lossy
Stream size : 633 MiB (8%)
Title : FOX
Language : Russian
Default : No
Forced : No
Audio #6
ID : 7
Format : DTS
Format/Info : Digital Theater Systems
Mode : 16
Format settings, Endianness : Big
Codec ID : A_DTS
Duration : 58mn 40s
Bit rate mode : Constant
Bit rate : 1 509 Kbps
Channel(s) : 6 channels
Channel positions : Front: L C R, Side: L R, LFE
Sampling rate : 48.0 KHz
Frame rate : 93.750 fps (512 spf)
Bit depth : 24 bits
Compression mode : Lossy
Stream size : 633 MiB (8%)
Title : NewStudio
Language : Russian
Default : No
Forced : No
Audio #7
ID : 8
Format : DTS
Format/Info : Digital Theater Systems
Mode : 16
Format settings, Endianness : Big
Codec ID : A_DTS
Duration : 58mn 40s
Bit rate mode : Constant
Bit rate : 1 509 Kbps
Channel(s) : 6 channels
Channel positions : Front: L C R, Side: L R, LFE
Sampling rate : 48.0 KHz
Frame rate : 93.750 fps (512 spf)
Bit depth : 24 bits
Compression mode : Lossy
Stream size : 633 MiB (8%)
Title : OmskBird
Language : Russian
Default : No
Forced : No
Audio #8
ID : 9
Format : DTS
Format/Info : Digital Theater Systems
Mode : 16
Format settings, Endianness : Big
Codec ID : A_DTS
Duration : 58mn 40s
Bit rate mode : Constant
Bit rate : 1 509 Kbps
Channel(s) : 6 channels
Channel positions : Front: L C R, Side: L R, LFE
Sampling rate : 48.0 KHz
Frame rate : 93.750 fps (512 spf)
Bit depth : 24 bits
Compression mode : Lossy
Stream size : 633 MiB (8%)
Title : UATeam
Language : Ukrainian
Default : No
Forced : No
Audio #9
ID : 10
Format : DTS
Format/Info : Digital Theater Systems
Mode : 16
Format settings, Endianness : Big
Codec ID : A_DTS
Duration : 58mn 40s
Bit rate mode : Constant
Bit rate : 1 509 Kbps
Channel(s) : 6 channels
Channel positions : Front: L C R, Side: L R, LFE
Sampling rate : 48.0 KHz
Frame rate : 93.750 fps (512 spf)
Bit depth : 24 bits
Compression mode : Lossy
Stream size : 633 MiB (8%)
Title : eng
Language : English
Default : No
Forced : No
Text #1
ID : 11
Format : UTF-8
Codec ID : S_TEXT/UTF8
Codec ID/Info : UTF-8 Plain Text
Title : 7kingdoms
Language : Russian
Default : No
Forced : No
Text #2
ID : 12
Format : UTF-8
Codec ID : S_TEXT/UTF8
Codec ID/Info : UTF-8 Plain Text
Title : Opel & Westeros.ru
Language : Russian
Default : No
Forced : No
Text #3
ID : 13
Format : UTF-8
Codec ID : S_TEXT/UTF8
Codec ID/Info : UTF-8 Plain Text
Title : Amedia
Language : Russian
Default : No
Forced : No
Text #4
ID : 14
Format : UTF-8
Codec ID : S_TEXT/UTF8
Codec ID/Info : UTF-8 Plain Text
Title : AMS
Language : Russian
Default : No
Forced : No
Text #5
ID : 15
Format : UTF-8
Codec ID : S_TEXT/UTF8
Codec ID/Info : UTF-8 Plain Text
Title : eng
Language : English
Default : No
Forced : No

Скриншоты:

-Раздача обновлена. Добавлены 6,7 серии. Приятного просмотра!
[freetreker.nl].t406.torrent 
Торрент: Зарегистрирован [ 2017-12-22 08:44 ] · DF15AE2842E9750BB3E8F8ADE63BF84667F7DFAC

Скачать .torrent

Скачать

142 KB

Статус: проверено
Скачан: 0 раз
Размер: 56,23 GB
terms.php
Похожие темы:
[Профиль] [ЛС]
Показать сообщения:    
Ответить на тему

Текущее время: 21-Апр 00:08

Часовой пояс: UTC ± 0



Вы не можете начинать темы
Вы не можете отвечать на сообщения
Вы не можете редактировать свои сообщения
Вы не можете удалять свои сообщения
Вы не можете голосовать в опросах
Вы не можете прикреплять файлы к сообщениям
Вы можете скачивать файлы