Эй, Арнольд! Приключения в джунглях / Hey Arnold!: The Jungle Movie (Крэйг Бартлетт) [2017, США, мультфильм, комедия, приключения, семейный, WEB-DL 1080p] MVO (Train Studio)

Ответить на тему
Статистика раздачи
Размер:  2,59 GB   |    Зарегистрирован:  5 месяцев 24 дня   |    Скачан:  10 раз
Сидов:  1  [  6 KB/s  ]   Подробная статистика пиров
 
     
 
 
 
Автор Сообщение

Gater ®

Пол: Не указан

Стаж: 11 месяцев 12 дней

Сообщений: 1101

Создавать темы 27-Дек-2017 19:56

[Цитировать]

-Эй, Арнольд! Приключения в джунглях / Hey Arnold!: The Jungle Movie- Год выпуска • 2017
Страна • США
Жанр • Мультфильм, комедия, приключения, семейный
Продолжительность • 81 мин.
Перевод
• Профессиональный (многоголосый, закадровый) "Train Studio"
-Создатели • Крэйг Бартлетт
Роли озвучивали • Мэйсон Коттон, Бенжамин Флорес мл., Франческа Смит, Крэйг Бартлетт, Антониетта Стелла, Дэн Кастелланета, Тресс МакНилл, Морис ЛаМарш, Джет Юргенсмейер, Карлос Аласраки и др.-Описание • Мультфильм является продолжением последнего эпизода, «Дневник» (The Journal), мультсериала «Эй, Арнольд!» в конце которого Арнольд находит карту и решает отправиться в джунгли на поиски своих родителей.-ПереводДияна Младенович
Роли озвучивалиСветлана Чистохина, Алёна Соколова, Маргарита Корш, Алексей Никитин, Андрей Стакионис, Дмитрий Рыбин, Михаил Шорыгин, Константин Погодаев и Станислав Черсков.-
Качество: Amazon WEB-DL 1080p
Формат: MKV
Видео: MPEG-4 AVC / 4089 kbps / 1920х1080p / 23.976 fps / 16:9 / ~ 0.082 bit/pixel / High Level 4.0
Аудио:
Русский / Dolby Digital 2.0 / 48 kHz / 192 kbps
English / Dolby Digital 2.0 / 48 kHz / 192 kbps
Субтитры: Eng | SRT-
-

Скриншоты

-

MediaInfo


General
Unique ID : 241155903866166778751509106694346855505 (0xB56CF009F8DAE41489538CBAEBED5451)
Complete name : H:\Мои Документы\Видео\РАЗДАЧИ\Арнольд\Hey Arnold The Jungle Movie 2017 WEB-DL 1080p (Train Studio).mkv
Format : Matroska
Format version : Version 2
File size : 2.59 GiB
Duration : 1 h 21 min
Overall bit rate mode : Variable
Overall bit rate : 4 564 kb/s
Encoded date : UTC 2017-12-27 19:44:14
Writing application : mkvmerge v4.0.0 ('The Stars were mine') сборка от Jun 6 2010 16:18:42
Writing library : libebml v1.0.0 + libmatroska v1.0.0
Video
ID : 1
Format : AVC
Format/Info : Advanced Video Codec
Format profile : High@L4
Format settings, CABAC : Yes
Format settings, RefFrames : 4 frames
Codec ID : V_MPEG4/ISO/AVC
Duration : 1 h 21 min
Bit rate mode : Variable
Bit rate : 4 089 kb/s
Maximum bit rate : 15.0 Mb/s
Width : 1 920 pixels
Height : 1 080 pixels
Display aspect ratio : 16:9
Frame rate mode : Constant
Frame rate : 23.976 (24000/1001) FPS
Color space : YUV
Chroma subsampling : 4:2:0
Bit depth : 8 bits
Scan type : Progressive
Bits/(Pixel*Frame) : 0.082
Stream size : 2.32 GiB (90%)
Default : No
Forced : No
Color range : Limited
Color primaries : BT.709
Transfer characteristics : BT.709
Matrix coefficients : BT.709
Audio #1
ID : 2
Format : AC-3
Format/Info : Audio Coding 3
Format settings, Endianness : Big
Codec ID : A_AC3
Duration : 1 h 21 min
Bit rate mode : Constant
Bit rate : 192 kb/s
Channel(s) : 2 channels
Channel positions : Front: L R
Sampling rate : 48.0 kHz
Frame rate : 31.250 FPS (1536 SPF)
Bit depth : 16 bits
Compression mode : Lossy
Stream size : 112 MiB (4%)
Language : Russian
Service kind : Complete Main
Default : Yes
Forced : No
Audio #2
ID : 3
Format : AC-3
Format/Info : Audio Coding 3
Format settings, Endianness : Big
Codec ID : A_AC3
Duration : 1 h 21 min
Bit rate mode : Constant
Bit rate : 192 kb/s
Channel(s) : 2 channels
Channel positions : Front: L R
Sampling rate : 48.0 kHz
Frame rate : 31.250 FPS (1536 SPF)
Bit depth : 16 bits
Compression mode : Lossy
Stream size : 112 MiB (4%)
Language : English
Service kind : Complete Main
Default : No
Forced : No
Text
ID : 4
Format : UTF-8
Codec ID : S_TEXT/UTF8
Codec ID/Info : UTF-8 Plain Text
Language : English
Default : No
Forced : No
[freetreker.nl].t437.torrent 
Торрент: Зарегистрирован [ 2017-12-27 19:56 ] · 6492D7EE14CF2373A4CCB8FED5E14034FC18CD9B

Скачать .torrent

Скачать

13 KB

Статус: проверено
Скачан: 10 раз
Размер: 2,59 GB
terms.php
Похожие темы:
[Профиль] [ЛС]
Показать сообщения:    
Ответить на тему

Текущее время: 21-Июн 17:54

Часовой пояс: UTC ± 0



Вы не можете начинать темы
Вы не можете отвечать на сообщения
Вы не можете редактировать свои сообщения
Вы не можете удалять свои сообщения
Вы не можете голосовать в опросах
Вы не можете прикреплять файлы к сообщениям
Вы можете скачивать файлы