Черное зеркало / Black Mirror / Сезон 4 / Серии 1-6 (6) (Чарли Брукер) [2017, Великобритания, США, фантастика, триллер, драма, WEBRip 720p] MVO (OMSKBIRD)

Ответить на тему
Статистика раздачи
Размер:  6,41 GB   |    Зарегистрирован:  6 месяцев 20 дней   |    Скачан:  1 раз

Полного источника не было: 5 месяцев 28 дней

 
     
 
 
 
Автор Сообщение

Gater ®

Пол: Не указан

Стаж: 1 год

Сообщений: 1152

Создавать темы 30-Дек-2017 20:00

[Цитировать]

-Черное зеркало / Black Mirror- Год выпуска • 2017
Страна • Великобритания, США
Жанр • фантастика, триллер, драма
Продолжительность • ~60 мин.
Перевод
• Профессиональный (многоголосый, закадровый) "OMSKBIRD records"
-Создатель • Чарли Брукер
В ролях • Джесси Племонс, Кристин Милиоти, Розмари ДеУитт, Андреа Райзборо, Джорджина Кэмпбелл, Джо Коул, Максин Пик, Дуглас Ходж и др.-Описание • За последние десять лет технологии всесторонне изменили нашу жизнь, прежде чем мы успели опомниться и усомниться в них. В каждом доме, на каждом столе, на каждой ладони — плазменный телевизор, монитор компьютера, дисплей смартфона — черное зеркало нашего существования в двадцать первом веке. Наша связь с реальностью меняется. Мы возложили на алтарь Google и Apple и поклоняемся им. Facebook-алгоритмы знают о нас больше, чем наши собственные родители. У нас есть доступ ко всей информации в мире, но в голове хватает места лишь для того, чтобы воспринять 140 символов из сообщения в Twitter. В «Чёрном зеркале» отображается всеобщее беспокойство за наш современный мир.-Реклама: Присутствует.-
Качество: Netflix WEBRip 720p
Формат: MKV
Видео: MPEG-4 AVC / ~ 2500 kbps / 1280х720p / 25.000 fps / 16:9
Аудио:
Русский / Dolby Digital 2.0 / 48 kHz / 192 kbps-
-

Скриншоты

MediaInfo


General
Unique ID : 187298670362830339346925771564463945003 (0x8CE8696A62C59C3E9D4AA222D40FF52B)
Complete name : H:\Мои Документы\Видео\РАЗДАЧИ\ЧЁРНОЕ ЗЕРКАЛО\Black Mirror S04 WEBRip 720p (OMSKBIRD)\Black Mirror S04E01 WEBRip 720p (OMSKBIRD).mkv
Format : Matroska
Format version : Version 2
File size : 1.41 GiB
Duration : 1 h 16 min
Overall bit rate : 2 626 kb/s
Encoded date : UTC 2017-12-30 15:43:58
Writing application : mkvmerge v4.0.0 ('The Stars were mine') сборка от Jun 6 2010 16:18:42
Writing library : libebml v1.0.0 + libmatroska v1.0.0
Video
ID : 1
Format : AVC
Format/Info : Advanced Video Codec
Format profile : Main@L4.1
Format settings, CABAC : Yes
Format settings, RefFrames : 3 frames
Codec ID : V_MPEG4/ISO/AVC
Duration : 1 h 16 min
Bit rate : 2 382 kb/s
Width : 1 280 pixels
Height : 720 pixels
Display aspect ratio : 16:9
Frame rate mode : Constant
Frame rate : 25.000 FPS
Standard : NTSC
Color space : YUV
Chroma subsampling : 4:2:0
Bit depth : 8 bits
Scan type : Progressive
Bits/(Pixel*Frame) : 0.103
Stream size : 1.28 GiB (91%)
Language : English
Default : Yes
Forced : No
Color range : Limited
Color primaries : BT.709
Transfer characteristics : BT.709
Matrix coefficients : BT.709
Audio
ID : 2
Format : AC-3
Format/Info : Audio Coding 3
Format settings, Endianness : Big
Codec ID : A_AC3
Duration : 1 h 16 min
Bit rate mode : Constant
Bit rate : 192 kb/s
Channel(s) : 2 channels
Channel positions : Front: L R
Sampling rate : 48.0 kHz
Frame rate : 31.250 FPS (1536 SPF)
Bit depth : 16 bits
Compression mode : Lossy
Stream size : 106 MiB (7%)
Service kind : Complete Main
Default : Yes
Forced : No
[freetreker.nl].t439.torrent 
Торрент: Зарегистрирован [ 2017-12-30 20:00 ] · A54FE901316AF5942156E02E75DCD5F2F4EC53FF

Скачать .torrent

Скачать

17 KB

Статус: проверено
Скачан: 1 раз
Размер: 6,41 GB
terms.php
Похожие темы:
[Профиль] [ЛС]
Показать сообщения:    
Ответить на тему

Текущее время: 20-Июл 03:15

Часовой пояс: UTC ± 0



Вы не можете начинать темы
Вы не можете отвечать на сообщения
Вы не можете редактировать свои сообщения
Вы не можете удалять свои сообщения
Вы не можете голосовать в опросах
Вы не можете прикреплять файлы к сообщениям
Вы можете скачивать файлы