Секретные материалы / The X Files / Сезон 11 / Серии 1-10 (10) (Крис Картер) [2018, США, фантастика, триллер, драма, детектив, WEB-DLRip 720p] MVO (OMSKBIRD)

Ответить на тему
Статистика раздачи
Размер:  9,64 GB   |    Зарегистрирован:  5 месяцев 27 дней   |    Скачан:  1 раз

Полного источника не было: 5 месяцев 14 дней

 
     
 
 
 
Автор Сообщение

Gater ®

Пол: Не указан

Стаж: 1 год 2 месяца

Сообщений: 1375

Создавать темы 04-Янв-2018 20:13

[Цитировать]

-Секретные материалы / The X Files- Год выпуска • 2018
Страна • США
Жанр • фантастика, триллер, драма, детектив
Продолжительность • ~44 мин.
Перевод
• Профессиональный (многоголосый, закадровый) "OMSKBIRD records"
-Создатель • Крис Картер
В ролях • Джиллиан Андерсон, Дэвид Духовны, Митч Пилледжи, Уильям Б. Дэвис, Аннабет Гиш, Робби Амелл, Лорен Эмброуз и др.-Описание • Агенты ФБР Малдер и Скалли продолжают исследовать странные и необъяснимые события нашего мира.-Реклама: Присутствует.-
Качество: WEB-DLRip 720p
Формат: MKV
Видео: MPEG-4 AVC / ~ 3000 kbps / 1280х720p / 23.976 fps / 16:9
Аудио:
Русский / Dolby Digital 2.0 / 48 kHz / 192 kbps-
-

Скриншоты

MediaInfo


General
Unique ID : 195140489650388921627075912861614147933 (0x92CEB0F4F95A772A9F85F322A9F1095D)
Complete name : H:\Мои Документы\Видео\РАЗДАЧИ\ИКС-ФАЙЛС\The X-Files S11 WEB-DLRip 720p (OMSKBIRD)\The X-Files S11E01 WEB-DLRip 720p (OMSKBIRD).mkv
Format : Matroska
Format version : Version 2
File size : 945 MiB
Duration : 42 min 41 s
Overall bit rate : 3 095 kb/s
Encoded date : UTC 2018-01-04 19:22:59
Writing application : mkvmerge v4.0.0 ('The Stars were mine') сборка от Jun 6 2010 16:18:42
Writing library : libebml v1.0.0 + libmatroska v1.0.0
Video
ID : 1
Format : AVC
Format/Info : Advanced Video Codec
Format profile : Baseline@L3.2
Format settings, CABAC : No
Format settings, RefFrames : 3 frames
Format settings, GOP : M=1, N=23
Codec ID : V_MPEG4/ISO/AVC
Duration : 42 min 41 s
Bit rate : 2 841 kb/s
Width : 1 280 pixels
Height : 720 pixels
Display aspect ratio : 16:9
Frame rate mode : Constant
Frame rate : 23.976 (24000/1001) FPS
Standard : NTSC
Color space : YUV
Chroma subsampling : 4:2:0
Bit depth : 8 bits
Scan type : Progressive
Bits/(Pixel*Frame) : 0.129
Stream size : 867 MiB (92%)
Language : English
Default : Yes
Forced : No
Color range : Limited
Color primaries : BT.709
Transfer characteristics : BT.709
Matrix coefficients : BT.709
Audio
ID : 2
Format : AC-3
Format/Info : Audio Coding 3
Format settings, Endianness : Big
Codec ID : A_AC3
Duration : 42 min 41 s
Bit rate mode : Constant
Bit rate : 192 kb/s
Channel(s) : 2 channels
Channel positions : Front: L R
Sampling rate : 48.0 kHz
Frame rate : 31.250 FPS (1536 SPF)
Bit depth : 16 bits
Compression mode : Lossy
Stream size : 58.6 MiB (6%)
Service kind : Complete Main
Default : Yes
Forced : No
[freetreker.nl].t444.torrent 
Торрент: Зарегистрирован [ 2018-03-22 20:29 ] · 3C3E66518E3D5616E6364440B1022862441D4C30

Скачать .torrent

Скачать

25 KB

Статус: проверено
Скачан: 1 раз
Размер: 9,64 GB
terms.php
Похожие темы:


Последний раз редактировалось: Gater (2018-03-22 20:29), всего редактировалось 8 раз(а)
[Профиль] [ЛС]

Gater ®

Пол: Не указан

Стаж: 1 год 2 месяца

Сообщений: 1375

Создавать темы 11-Янв-2018 20:01 (спустя 6 дней)

[Цитировать]

+2
[Профиль] [ЛС]

Gater ®

Пол: Не указан

Стаж: 1 год 2 месяца

Сообщений: 1375

Создавать темы 18-Янв-2018 18:11 (спустя 6 дней)

[Цитировать]

+3
[Профиль] [ЛС]

Gater ®

Пол: Не указан

Стаж: 1 год 2 месяца

Сообщений: 1375

Создавать темы 25-Янв-2018 18:55 (спустя 7 дней)

[Цитировать]

+4
[Профиль] [ЛС]

Gater ®

Пол: Не указан

Стаж: 1 год 2 месяца

Сообщений: 1375

Создавать темы 01-Фев-2018 15:52 (спустя 6 дней)

[Цитировать]

+5
[Профиль] [ЛС]

Gater ®

Пол: Не указан

Стаж: 1 год 2 месяца

Сообщений: 1375

Создавать темы 08-Фев-2018 16:06 (спустя 7 дней)

[Цитировать]

+6
[Профиль] [ЛС]

Gater ®

Пол: Не указан

Стаж: 1 год 2 месяца

Сообщений: 1375

Создавать темы 01-Мар-2018 13:05 (спустя 20 дней)

[Цитировать]

+7
[Профиль] [ЛС]

Gater ®

Пол: Не указан

Стаж: 1 год 2 месяца

Сообщений: 1375

Создавать темы 08-Мар-2018 17:39 (спустя 7 дней)

[Цитировать]

+8
[Профиль] [ЛС]

Gater ®

Пол: Не указан

Стаж: 1 год 2 месяца

Сообщений: 1375

Создавать темы 15-Мар-2018 21:10 (спустя 7 дней)

[Цитировать]

+9
[Профиль] [ЛС]

Gater ®

Пол: Не указан

Стаж: 1 год 2 месяца

Сообщений: 1375

Создавать темы 22-Мар-2018 20:31 (спустя 6 дней)

[Цитировать]

Добавлена 10 серия.
Финал сезона.
[Профиль] [ЛС]
Показать сообщения:    
Ответить на тему

Текущее время: 19-Сен 14:35

Часовой пояс: UTC ± 0



Вы не можете начинать темы
Вы не можете отвечать на сообщения
Вы не можете редактировать свои сообщения
Вы не можете удалять свои сообщения
Вы не можете голосовать в опросах
Вы не можете прикреплять файлы к сообщениям
Вы можете скачивать файлы