Заложница / Taken / Сезон 2 / Серии 1-16 (16) (Холли Дэйл) [2018, США, боевик, триллер, WEB-DLRip 720p] MVO (OMSKBIRD)

Ответить на тему
Статистика раздачи
Размер:  15,16 GB   |    Зарегистрирован:  2 месяца 16 дней   |    Скачан:  0 раз

Полного источника не было: 1 месяц 17 дней

 
     
 
 
 
Автор Сообщение

Gater ®

Пол: Не указан

Стаж: 1 год 2 месяца

Сообщений: 1375

Создавать темы 21-Янв-2018 10:59

[Цитировать]

- Заложница / Taken- Год выпуска • 2018
Страна • США
Жанр • Боевик, триллер
Продолжительность • ~44 мин.
Перевод
• Профессиональный (многоголосый, закадровый) "OMSKBIRD records"
-Режиссёр • Холли Дэйл, Ромео Тироне, Лекси Александр
В ролях • Клайв Стэнден, Джеймс Хеберт, Симу Лью, Дженнифер Марсала, Романо Орцари, Джанет Рэкуэл, Дженнифер Билз, Моник Кёрнен, Гай Чарльз, Майкл Ирби и др.-Описание • Это история молодого Брайана Миллса, бывшего «зеленого берета», пережившего трагедию, которая полностью изменила его. Справляясь с последствиями травмы, Миллс становится оперативником ЦРУ, и новая работа пробуждает в нем особенные и невероятно опасные таланты.-
Качество: WEB-DLRip 720p
Формат: MKV
Видео: MPEG-4 AVC / ~ 3000 kbps / 1280х720p / 23.976 fps / 16:9
Аудио:
Русский / Dolby Digital 2.0 / 48 kHz / 192 kbps-
-

Скриншоты

-

MediaInfo


General
Unique ID : 221977919871793717364447077306573290436 (0xA6FF646CF23D38B89987C24A66C07BC4)
Complete name : H:\Мои Документы\Видео\РАЗДАЧИ\ЗАЛОЖНИЦА\Taken S02 WEB-DLRip 720p (OMSKBIRD)\Taken S02E01 WEB-DLRip 720p (OMSKBIRD).mkv
Format : Matroska
Format version : Version 2
File size : 974 MiB
Duration : 43 min 25 s
Overall bit rate : 3 134 kb/s
Encoded date : UTC 2018-01-20 19:33:42
Writing application : mkvmerge v4.0.0 ('The Stars were mine') сборка от Jun 6 2010 16:18:42
Writing library : libebml v1.0.0 + libmatroska v1.0.0
Video
ID : 2
Format : AVC
Format/Info : Advanced Video Codec
Format profile : Main@L4.1
Format settings, CABAC : Yes
Format settings, RefFrames : 3 frames
Codec ID : V_MPEG4/ISO/AVC
Duration : 43 min 25 s
Bit rate : 2 880 kb/s
Width : 1 280 pixels
Height : 720 pixels
Display aspect ratio : 16:9
Frame rate mode : Constant
Frame rate : 23.976 (24000/1001) FPS
Standard : NTSC
Color space : YUV
Chroma subsampling : 4:2:0
Bit depth : 8 bits
Scan type : Progressive
Bits/(Pixel*Frame) : 0.130
Stream size : 895 MiB (92%)
Language : English
Default : Yes
Forced : No
Color range : Limited
Color primaries : BT.709
Transfer characteristics : BT.709
Matrix coefficients : BT.709
Audio
ID : 1
Format : AC-3
Format/Info : Audio Coding 3
Format settings, Endianness : Big
Codec ID : A_AC3
Duration : 43 min 25 s
Bit rate mode : Constant
Bit rate : 192 kb/s
Channel(s) : 2 channels
Channel positions : Front: L R
Sampling rate : 48.0 kHz
Frame rate : 31.250 FPS (1536 SPF)
Bit depth : 16 bits
Compression mode : Lossy
Stream size : 59.6 MiB (6%)
Service kind : Complete Main
Default : Yes
Forced : No
[freetreker.nl].t458.torrent 
Торрент: Зарегистрирован [ 2018-07-02 20:19 ] · F9CDBFB9304F1B0FE013B35B25FCC1930397AB07

Скачать .torrent

Скачать

39 KB

Статус: проверено
Скачан: 0 раз
Размер: 15,16 GB
terms.php
Похожие темы:


Последний раз редактировалось: Gater (2018-07-02 20:19), всего редактировалось 13 раз(а)
[Профиль] [ЛС]

Gater ®

Пол: Не указан

Стаж: 1 год 2 месяца

Сообщений: 1375

Создавать темы 27-Янв-2018 21:29 (спустя 6 дней)

[Цитировать]

+3
[Профиль] [ЛС]

Gater ®

Пол: Не указан

Стаж: 1 год 2 месяца

Сообщений: 1375

Создавать темы 03-Фев-2018 23:17 (спустя 7 дней)

[Цитировать]

+4
[Профиль] [ЛС]

Gater ®

Пол: Не указан

Стаж: 1 год 2 месяца

Сообщений: 1375

Создавать темы 03-Мар-2018 21:07 (спустя 27 дней)

[Цитировать]

+5
[Профиль] [ЛС]

Gater ®

Пол: Не указан

Стаж: 1 год 2 месяца

Сообщений: 1375

Создавать темы 11-Мар-2018 11:05 (спустя 7 дней)

[Цитировать]

+6
[Профиль] [ЛС]

Gater ®

Пол: Не указан

Стаж: 1 год 2 месяца

Сообщений: 1375

Создавать темы 17-Мар-2018 20:55 (спустя 6 дней)

[Цитировать]

+7
[Профиль] [ЛС]

Gater ®

Пол: Не указан

Стаж: 1 год 2 месяца

Сообщений: 1375

Создавать темы 24-Мар-2018 19:18 (спустя 6 дней)

[Цитировать]

+8
[Профиль] [ЛС]

Gater ®

Пол: Не указан

Стаж: 1 год 2 месяца

Сообщений: 1375

Создавать темы 31-Мар-2018 20:48 (спустя 7 дней)

[Цитировать]

+9
[Профиль] [ЛС]

Gater ®

Пол: Не указан

Стаж: 1 год 2 месяца

Сообщений: 1375

Создавать темы 08-Апр-2018 15:30 (спустя 7 дней)

[Цитировать]

Добавлена 10 серия.
[Профиль] [ЛС]

Gater ®

Пол: Не указан

Стаж: 1 год 2 месяца

Сообщений: 1375

Создавать темы 15-Апр-2018 10:48 (спустя 6 дней)

[Цитировать]

Добавлена 11 серия.
[Профиль] [ЛС]

Gater ®

Пол: Не указан

Стаж: 1 год 2 месяца

Сообщений: 1375

Создавать темы 28-Май-2018 12:02 (спустя 1 месяц 13 дней)

[Цитировать]

Добавлена 12 серия.
[Профиль] [ЛС]

Gater ®

Пол: Не указан

Стаж: 1 год 2 месяца

Сообщений: 1375

Создавать темы 04-Июн-2018 13:58 (спустя 7 дней)

[Цитировать]

Добавлена 13 серия.
[Профиль] [ЛС]

Gater ®

Пол: Не указан

Стаж: 1 год 2 месяца

Сообщений: 1375

Создавать темы 11-Июн-2018 14:10 (спустя 7 дней)

[Цитировать]

Добавлена 14 серия.
[Профиль] [ЛС]

Gater ®

Пол: Не указан

Стаж: 1 год 2 месяца

Сообщений: 1375

Создавать темы 25-Июн-2018 12:48 (спустя 13 дней)

[Цитировать]

Добавлена 15 серия.
[Профиль] [ЛС]

Gater ®

Пол: Не указан

Стаж: 1 год 2 месяца

Сообщений: 1375

Создавать темы 02-Июл-2018 20:20 (спустя 7 дней)

[Цитировать]

Добавлена 16 серия.
Финал сезона.
[Профиль] [ЛС]
Показать сообщения:    
Ответить на тему

Текущее время: 19-Сен 14:49

Часовой пояс: UTC ± 0



Вы не можете начинать темы
Вы не можете отвечать на сообщения
Вы не можете редактировать свои сообщения
Вы не можете удалять свои сообщения
Вы не можете голосовать в опросах
Вы не можете прикреплять файлы к сообщениям
Вы можете скачивать файлы