Заложница / Taken / Сезон 2 / Серии 1-16 (16) (Холли Дэйл) [2018, США, боевик, триллер, WEB-DLRip] MVO (OMSKBIRD)

Ответить на тему
Статистика раздачи
Размер:  9,54 GB   |    Зарегистрирован:  16 дней   |    Скачан:  0 раз
Сидов:  2  [  0 KB/s  ]   Подробная статистика пиров
 
     
 
 
 
Автор Сообщение

Gater ®

Пол: Не указан

Стаж: 1 год

Сообщений: 1152

Создавать темы 21-Янв-2018 10:59

[Цитировать]

- Заложница / Taken- Год выпуска • 2018
Страна • США
Жанр • Боевик, триллер
Продолжительность • ~44 мин.
Перевод
• Профессиональный (многоголосый, закадровый) "OMSKBIRD records"
-Режиссёр • Холли Дэйл, Ромео Тироне, Лекси Александр
В ролях • Клайв Стэнден, Джеймс Хеберт, Симу Лью, Дженнифер Марсала, Романо Орцари, Джанет Рэкуэл, Дженнифер Билз, Моник Кёрнен, Гай Чарльз, Майкл Ирби и др.-Описание • Это история молодого Брайана Миллса, бывшего «зеленого берета», пережившего трагедию, которая полностью изменила его. Справляясь с последствиями травмы, Миллс становится оперативником ЦРУ, и новая работа пробуждает в нем особенные и невероятно опасные таланты.-
Качество: WEB-DLRip
Формат: AVI
Видео: Xvid / ~ 1800 kbps / 720х400p / 23.976 fps / 16:9
Аудио:
Русский / Dolby Digital 2.0 / 48 kHz / 192 kbps-
-

Скриншоты

-

MediaInfo


General
Complete name : H:\Мои Документы\Видео\РАЗДАЧИ\ЗАЛОЖНИЦА\Taken S02 WEB-DLRip (OMSKBIRD)\Taken S02E01 WEB-DLRip (OMSKBIRD).avi
Format : AVI
Format/Info : Audio Video Interleave
File size : 615 MiB
Duration : 43 min 25 s
Overall bit rate : 1 979 kb/s
Writing application : VirtualDubMod 1.5.10.3 | www.virtualdub-fr.org || (build 2550/release)
Writing library : VirtualDubMod build 2550/release
Video
ID : 0
Format : MPEG-4 Visual
Format profile : Advanced Simple@L5
Format settings, BVOP : 1
Format settings, QPel : No
Format settings, GMC : No warppoints
Format settings, Matrix : Default (H.263)
Codec ID : XVID
Codec ID/Hint : XviD
Duration : 43 min 25 s
Bit rate : 1 777 kb/s
Width : 720 pixels
Height : 400 pixels
Display aspect ratio : 16:9
Frame rate : 23.976 (24000/1001) FPS
Color space : YUV
Chroma subsampling : 4:2:0
Bit depth : 8 bits
Scan type : Progressive
Compression mode : Lossy
Bits/(Pixel*Frame) : 0.257
Stream size : 552 MiB (90%)
Writing library : XviD 67
Audio
ID : 1
Format : AC-3
Format/Info : Audio Coding 3
Format settings, Endianness : Big
Codec ID : 2000
Duration : 43 min 25 s
Bit rate mode : Constant
Bit rate : 192 kb/s
Channel(s) : 2 channels
Channel positions : Front: L R
Sampling rate : 48.0 kHz
Frame rate : 31.250 FPS (1536 SPF)
Bit depth : 16 bits
Compression mode : Lossy
Stream size : 59.6 MiB (10%)
Alignment : Split accross interleaves
Interleave, duration : 42 ms (1.00 video frame)
Interleave, preload duratio : 500 ms
Service kind : Complete Main
[freetreker.nl].t459.torrent 
Торрент: Зарегистрирован [ 2018-07-02 20:19 ] · D7816C134F7AD302463BFB7A45AE209436B12AF9

Скачать .torrent

Скачать

25 KB

Статус: проверено
Скачан: 0 раз
Размер: 9,54 GB
terms.php
Похожие темы:


Последний раз редактировалось: Gater (2018-07-02 20:19), всего редактировалось 13 раз(а)
[Профиль] [ЛС]

Gater ®

Пол: Не указан

Стаж: 1 год

Сообщений: 1152

Создавать темы 27-Янв-2018 21:29 (спустя 6 дней)

[Цитировать]

+3
[Профиль] [ЛС]

Gater ®

Пол: Не указан

Стаж: 1 год

Сообщений: 1152

Создавать темы 03-Фев-2018 23:16 (спустя 7 дней)

[Цитировать]

+4
[Профиль] [ЛС]

Gater ®

Пол: Не указан

Стаж: 1 год

Сообщений: 1152

Создавать темы 03-Мар-2018 21:07 (спустя 27 дней)

[Цитировать]

+5
[Профиль] [ЛС]

Gater ®

Пол: Не указан

Стаж: 1 год

Сообщений: 1152

Создавать темы 11-Мар-2018 11:05 (спустя 7 дней)

[Цитировать]

+6
[Профиль] [ЛС]

Gater ®

Пол: Не указан

Стаж: 1 год

Сообщений: 1152

Создавать темы 17-Мар-2018 20:55 (спустя 6 дней)

[Цитировать]

+7
[Профиль] [ЛС]

Gater ®

Пол: Не указан

Стаж: 1 год

Сообщений: 1152

Создавать темы 24-Мар-2018 19:18 (спустя 6 дней)

[Цитировать]

+8
[Профиль] [ЛС]

Gater ®

Пол: Не указан

Стаж: 1 год

Сообщений: 1152

Создавать темы 31-Мар-2018 20:48 (спустя 7 дней)

[Цитировать]

+9
[Профиль] [ЛС]

Gater ®

Пол: Не указан

Стаж: 1 год

Сообщений: 1152

Создавать темы 08-Апр-2018 15:30 (спустя 7 дней)

[Цитировать]

Добавлена 10 серия.
[Профиль] [ЛС]

Gater ®

Пол: Не указан

Стаж: 1 год

Сообщений: 1152

Создавать темы 15-Апр-2018 10:48 (спустя 6 дней)

[Цитировать]

Добавлена 11 серия.
[Профиль] [ЛС]

Gater ®

Пол: Не указан

Стаж: 1 год

Сообщений: 1152

Создавать темы 28-Май-2018 12:02 (спустя 1 месяц 13 дней)

[Цитировать]

Добавлена 12 серия.
[Профиль] [ЛС]

Gater ®

Пол: Не указан

Стаж: 1 год

Сообщений: 1152

Создавать темы 04-Июн-2018 13:57 (спустя 7 дней)

[Цитировать]

Добавлена 13 серия.
[Профиль] [ЛС]

Gater ®

Пол: Не указан

Стаж: 1 год

Сообщений: 1152

Создавать темы 11-Июн-2018 14:10 (спустя 7 дней)

[Цитировать]

Добавлена 14 серия.
[Профиль] [ЛС]

Gater ®

Пол: Не указан

Стаж: 1 год

Сообщений: 1152

Создавать темы 25-Июн-2018 12:48 (спустя 13 дней)

[Цитировать]

Добавлена 15 серия.
[Профиль] [ЛС]

Gater ®

Пол: Не указан

Стаж: 1 год

Сообщений: 1152

Создавать темы 02-Июл-2018 20:21 (спустя 7 дней)

[Цитировать]

Добавлена 16 серия.
Финал сезона.
[Профиль] [ЛС]
Показать сообщения:    
Ответить на тему

Текущее время: 19-Июл 19:30

Часовой пояс: UTC ± 0



Вы не можете начинать темы
Вы не можете отвечать на сообщения
Вы не можете редактировать свои сообщения
Вы не можете удалять свои сообщения
Вы не можете голосовать в опросах
Вы не можете прикреплять файлы к сообщениям
Вы можете скачивать файлы