Конец ё****го мира / The End of the F***ing World / Сезон 1 / Серии 1-8 (8) (Джонатан Энтвистл) [2018, Великобритания, драма, чёрная комедия, WEBRip 1080p] MVO (OMSKBIRD) Original + Eng Subs

Ответить на тему
Статистика раздачи
Размер:  6,56 GB   |    Зарегистрирован:  8 месяцев 1 день   |    Скачан:  2 раза

Полного источника не было: 7 месяцев 9 дней

 
     
 
 
 
Автор Сообщение

Gater ®

Пол: Не указан

Стаж: 1 год 2 месяца

Сообщений: 1378

Создавать темы 21-Янв-2018 16:42

[Цитировать]

-Конец ё****го мира / The End of the F***ing World- Год выпуска • 2018
Страна • Великобритания
Жанр • чёрная комедия, драма
Продолжительность • ~25 мин.
Перевод
• Профессиональный (многоголосый, закадровый) "OMSKBIRD records"
-Создатель • Джонатан Энтвистл
В ролях • Джессика Барден, Алекс Лоутер, Стив Орам, Вунми Моссаку, Джемма Уилан, Кристин Боттомли, Навин Чоудхри и др.-Описание • Джеймсу семнадцать и он уверен, что он — психопат. Алисе тоже семнадцать, она — капризная новенькая девчонка в школе. Они с пол-оборота заводят подростковый роман, и Алиса уговаривает Джеймса начать поиски её отца. Джеймсу от Алисы тоже кое-что нужно…-Реклама: Присутствует.-ПЕРЕВОД БЕЗ ЦЕНЗУРЫ!-
Качество: Netflix WEBRip 1080p
Формат: MKV
Видео: MPEG-4 AVC / ~ 5000 kbps / 1920х1080p / 25.000 fps / 16:9 / ~ 0.100 bit/pixel / Main Level 4.0
Аудио:
Русский / Dolby Digital 5.1 / 48 kHz / 384 kbps
English / Dolby Digital 5.1 / 48 kHz / 384 kbps
Субтитры: Eng / SRT-
-

Скриншоты

MediaInfo


General
Unique ID : 245376727195968053178013328919011411380 (0xB899D6B22CFA04E1B464839F859245B4)
Complete name : H:\Мои Документы\Видео\РАЗДАЧИ\ЁМАНЫЙ МИР\The End of the Fucking World S01 WEBRip 1080p (OMSKBIRD)\The End of the Fucking World S01E01 WEBRip 1080p (OMSKBIRD).mkv
Format : Matroska
Format version : Version 2
File size : 748 MiB
Duration : 18 min 54 s
Overall bit rate mode : Variable
Overall bit rate : 5 527 kb/s
Encoded date : UTC 2018-01-19 12:24:45
Writing application : mkvmerge v4.0.0 ('The Stars were mine') сборка от Jun 6 2010 16:18:42
Writing library : libebml v1.0.0 + libmatroska v1.0.0
Video
ID : 1
Format : AVC
Format/Info : Advanced Video Codec
Format profile : Main@L4
Format settings, CABAC : Yes
Format settings, RefFrames : 3 frames
Codec ID : V_MPEG4/ISO/AVC
Duration : 18 min 54 s
Bit rate mode : Variable
Bit rate : 4 870 kb/s
Maximum bit rate : 7 305 kb/s
Width : 1 920 pixels
Height : 1 080 pixels
Display aspect ratio : 16:9
Frame rate mode : Constant
Frame rate : 25.000 FPS
Color space : YUV
Chroma subsampling : 4:2:0
Bit depth : 8 bits
Scan type : Progressive
Bits/(Pixel*Frame) : 0.094
Stream size : 629 MiB (84%)
Writing library : x264 core 148
Encoding settings : cabac=1 / ref=3 / deblock=1:0:0 / analyse=0x1:0x111 / me=umh / subme=10 / psy=1 / psy_rd=1.00:0.00 / mixed_ref=1 / me_range=24 / chroma_me=1 / trellis=2 / 8x8dct=0 / cqm=0 / deadzone=21,11 / fast_pskip=1 / chroma_qp_offset=-2 / threads=8 / lookahead_threads=1 / sliced_threads=0 / nr=0 / decimate=1 / interlaced=0 / bluray_compat=0 / stitchable=1 / constrained_intra=0 / bframes=2 / b_pyramid=0 / b_adapt=2 / b_bias=0 / direct=3 / weightb=1 / open_gop=0 / weightp=2 / keyint=50 / keyint_min=26 / scenecut=0 / intra_refresh=0 / rc_lookahead=50 / rc=2pass / mbtree=1 / bitrate=4870 / ratetol=1.0 / qcomp=0.50 / qpmin=6 / qpmax=51 / qpstep=4 / cplxblur=20.0 / qblur=0.5 / vbv_maxrate=7305 / vbv_bufsize=9740 / nal_hrd=vbr / filler=0 / ip_ratio=1.40 / aq=1:1.00
Default : No
Forced : No
Audio #1
ID : 2
Format : AC-3
Format/Info : Audio Coding 3
Format settings, Endianness : Big
Codec ID : A_AC3
Duration : 18 min 54 s
Bit rate mode : Constant
Bit rate : 384 kb/s
Channel(s) : 6 channels
Channel positions : Front: L C R, Side: L R, LFE
Sampling rate : 48.0 kHz
Frame rate : 31.250 FPS (1536 SPF)
Bit depth : 16 bits
Compression mode : Lossy
Stream size : 51.9 MiB (7%)
Language : Russian
Service kind : Complete Main
Default : Yes
Forced : No
Audio #2
ID : 3
Format : AC-3
Format/Info : Audio Coding 3
Format settings, Endianness : Big
Codec ID : A_AC3
Duration : 18 min 54 s
Bit rate mode : Constant
Bit rate : 384 kb/s
Channel(s) : 6 channels
Channel positions : Front: L C R, Side: L R, LFE
Sampling rate : 48.0 kHz
Frame rate : 31.250 FPS (1536 SPF)
Bit depth : 16 bits
Compression mode : Lossy
Stream size : 51.9 MiB (7%)
Language : English
Service kind : Complete Main
Default : No
Forced : No
Text
ID : 4
Format : UTF-8
Codec ID : S_TEXT/UTF8
Codec ID/Info : UTF-8 Plain Text
Language : English
Default : No
Forced : No
[freetreker.nl].t460.torrent 
Торрент: Зарегистрирован [ 2018-01-21 16:42 ] · 34CEF4AA25D3DD784C2B7D338DFB759BFB17E527

Скачать .torrent

Скачать

17 KB

Статус: проверено
Скачан: 2 раз
Размер: 6,56 GB
terms.php
Похожие темы:
[Профиль] [ЛС]
Показать сообщения:    
Ответить на тему

Текущее время: 23-Сен 14:18

Часовой пояс: UTC ± 0



Вы не можете начинать темы
Вы не можете отвечать на сообщения
Вы не можете редактировать свои сообщения
Вы не можете удалять свои сообщения
Вы не можете голосовать в опросах
Вы не можете прикреплять файлы к сообщениям
Вы можете скачивать файлы