Падающая вода / Falling Water / Сезон 2 / Серии 1-10 (10) (Генри Бромелл) [2018, США, фантастика, триллер, драма, детектив, WEB-DL 1080p] MVO (OMSKBIRD) Original + Eng Subs

Ответить на тему
Статистика раздачи
Размер:  19,15 GB   |    Зарегистрирован:  6 месяцев 11 дней   |    Скачан:  1 раз

Полного источника не было: 4 месяца 22 дня

 
     
 
 
 
Автор Сообщение

Gater ®

Пол: Не указан

Стаж: 1 год 2 месяца

Сообщений: 1378

Создавать темы 22-Янв-2018 11:13

[Цитировать]

- Падающая вода / Falling Water- Год выпуска • 2018
Страна • США
Жанр • Фантастика, триллер, драма, детектив
Продолжительность • ~44 мин.
Перевод
• Профессиональный (многоголосый, закадровый) "OMSKBIRD records"
-Режиссёр • Генри Бромелл, Блейк Мастерс
В ролях • Дэвид Аджала, Лиззи Брошере, Уилл Юн Ли, Кай Леннокс, Анна Вуд, Брук Блум, Мелани Николлз-Кинг, Джоди Лонг, Зак Орт и др.-Описание • Три незнакомца постепенно осознают, что им снятся отдельные фрагменты общего сна. Каждый из них должен выполнить собственный квест — один ищет пропавшую подружку, второй — потерянного ребенка, третий — лекарство, которое выведет из кататонического ступора его мать, а тем временем все ключи к квестам находятся в их общем сне. Чем глубже они погружаются, тем сильнее осознают, что их истинная миссия намного важнее, чем личные поиски, и что образы, возникшие в их общем сне, возможно, содержат главную подсказку о судьбе мира.-
Качество: Amazon WEB-DL 1080p
Формат: MKV
Видео: MPEG-4 AVC / ~ 6000 kbps / 1920х1080p / 23.976 fps / 16:9 / ~ 0.120 bit/pixel / High Level 4.0
Аудио:
Русский / Dolby Digital 5.1 / 48 kHz / 384 kbps
English / Dolby Digital 5.1 / 48 kHz / 384 kbps
Субтитры:Eng / Srt-
-

Скриншоты

MediaInfo


General
Unique ID : 237390061174503227727631094934506652876 (0xB297A9A8C7064AD2A4397C4EDAAD44CC)
Complete name : H:\Мои Документы\Видео\РАЗДАЧИ\ВОДОПАД\Falling Water S02 WEB-DL 1080p (OMSKBIRD)\Falling Water S02E01 WEB-DL 1080p (OMSKBIRD).mkv
Format : Matroska
Format version : Version 2
File size : 2.02 GiB
Duration : 41 min 55 s
Overall bit rate mode : Variable
Overall bit rate : 6 884 kb/s
Encoded date : UTC 2018-01-21 21:13:38
Writing application : mkvmerge v4.0.0 ('The Stars were mine') сборка от Jun 6 2010 16:18:42
Writing library : libebml v1.0.0 + libmatroska v1.0.0
Video
ID : 1
Format : AVC
Format/Info : Advanced Video Codec
Format profile : High@L4
Format settings, CABAC : Yes
Format settings, RefFrames : 4 frames
Codec ID : V_MPEG4/ISO/AVC
Duration : 41 min 55 s
Bit rate mode : Variable
Bit rate : 5 979 kb/s
Maximum bit rate : 15.0 Mb/s
Width : 1 920 pixels
Height : 1 080 pixels
Display aspect ratio : 16:9
Frame rate mode : Constant
Frame rate : 23.976 (24000/1001) FPS
Color space : YUV
Chroma subsampling : 4:2:0
Bit depth : 8 bits
Scan type : Progressive
Bits/(Pixel*Frame) : 0.120
Stream size : 1.75 GiB (87%)
Default : No
Forced : No
Color range : Limited
Color primaries : BT.709
Transfer characteristics : BT.709
Matrix coefficients : BT.709
Audio #1
ID : 2
Format : AC-3
Format/Info : Audio Coding 3
Format settings, Endianness : Big
Codec ID : A_AC3
Duration : 41 min 55 s
Bit rate mode : Constant
Bit rate : 384 kb/s
Channel(s) : 6 channels
Channel positions : Front: L C R, Side: L R, LFE
Sampling rate : 48.0 kHz
Frame rate : 31.250 FPS (1536 SPF)
Bit depth : 16 bits
Compression mode : Lossy
Stream size : 115 MiB (6%)
Language : Russian
Service kind : Complete Main
Default : Yes
Forced : No
Audio #2
ID : 3
Format : AC-3
Format/Info : Audio Coding 3
Format settings, Endianness : Big
Codec ID : A_AC3
Duration : 41 min 55 s
Bit rate mode : Constant
Bit rate : 384 kb/s
Channel(s) : 6 channels
Channel positions : Front: L C R, Side: L R, LFE
Sampling rate : 48.0 kHz
Frame rate : 31.250 FPS (1536 SPF)
Bit depth : 16 bits
Compression mode : Lossy
Stream size : 115 MiB (6%)
Language : English
Service kind : Complete Main
Default : No
Forced : No
Text
ID : 4
Format : UTF-8
Codec ID : S_TEXT/UTF8
Codec ID/Info : UTF-8 Plain Text
Language : English
Default : No
Forced : No
[freetreker.nl].t466.torrent 
Торрент: Зарегистрирован [ 2018-03-12 12:09 ] · 800E180AD36B0C39C4D88C7745F186CB16B17402

Скачать .torrent

Скачать

49 KB

Статус: проверено
Скачан: 1 раз
Размер: 19,15 GB
terms.php
Похожие темы:


Последний раз редактировалось: Gater (2018-03-12 12:09), всего редактировалось 7 раз(а)
[Профиль] [ЛС]

Gater ®

Пол: Не указан

Стаж: 1 год 2 месяца

Сообщений: 1378

Создавать темы 27-Янв-2018 22:02 (спустя 5 дней)

[Цитировать]

+2 и 3
[Профиль] [ЛС]

Gater ®

Пол: Не указан

Стаж: 1 год 2 месяца

Сообщений: 1378

Создавать темы 30-Янв-2018 18:18 (спустя 2 дня 20 часов)

[Цитировать]

+4
[Профиль] [ЛС]

Gater ®

Пол: Не указан

Стаж: 1 год 2 месяца

Сообщений: 1378

Создавать темы 05-Фев-2018 17:18 (спустя 5 дней)

[Цитировать]

+5
[Профиль] [ЛС]

Gater ®

Пол: Не указан

Стаж: 1 год 2 месяца

Сообщений: 1378

Создавать темы 12-Фев-2018 14:34 (спустя 6 дней)

[Цитировать]

+6
[Профиль] [ЛС]

Gater ®

Пол: Не указан

Стаж: 1 год 2 месяца

Сообщений: 1378

Создавать темы 19-Фев-2018 16:36 (спустя 7 дней)

[Цитировать]

Добавлена 7 серия пока в формате WEBRip со звуком 2.0 и без англ субтитров.
[Профиль] [ЛС]

Gater ®

Пол: Не указан

Стаж: 1 год 2 месяца

Сообщений: 1378

Создавать темы 26-Фев-2018 14:39 (спустя 6 дней)

[Цитировать]

Добавлена 8 серия.
[Профиль] [ЛС]

Gater ®

Пол: Не указан

Стаж: 1 год 2 месяца

Сообщений: 1378

Создавать темы 05-Мар-2018 12:08 (спустя 6 дней)

[Цитировать]

Добавлена 9 серия.
[Профиль] [ЛС]

Gater ®

Пол: Не указан

Стаж: 1 год 2 месяца

Сообщений: 1378

Создавать темы 12-Мар-2018 12:09 (спустя 7 дней)

[Цитировать]

Добавлена 10 серия.
Финал сезона.
[Профиль] [ЛС]
Показать сообщения:    
Ответить на тему

Текущее время: 23-Сен 14:23

Часовой пояс: UTC ± 0



Вы не можете начинать темы
Вы не можете отвечать на сообщения
Вы не можете редактировать свои сообщения
Вы не можете удалять свои сообщения
Вы не можете голосовать в опросах
Вы не можете прикреплять файлы к сообщениям
Вы можете скачивать файлы