Радиоволна / Frequency / Сезон: 1 / Серии: 1-13 из 13 + эпилог (Брэд Андерсон, Джон Т. Кречмер) [2016, США, Полицейская драма, детектив, научная фантастика, WEB-DL / WEBrip 720p] MVO (OmskBird) + Original

Ответить на тему
Статистика раздачи
Размер:  18,55 GB   |    Зарегистрирован:  1 год 4 месяца   |    Скачан:  0 раз

Полного источника не было: 1 год 3 месяца

 
     
 
 
 
Автор Сообщение

Grandfather61 ®

Пол: Мужской

Стаж: 1 год 5 месяцев

Сообщений: 641

Создавать темы 23-Июл-2017 07:07

[Цитировать]

--Радиоволна / Frequency-- Год выпуска: 2016
Страна: США
Жанр: Драма, детектив, фантастика
Продолжительность: ~ 00:43:00-Перевод: Профессиональный (многоголосый закадровый) OmskBird-Режиссёр: Брэд Андерсон, Джон Т. Кречмер
В ролях: Пейтон Лист. Дэниэл Бонжур. Ленни Джейкобсон. Девин Келли. Мехи Файфер. Райли Смит. Гаретт Баллок. Винсент Дэнгерфилд. Татьяна Форрест. Эмми О`Лири. Шон О. Робертс. Энтони Руйвивар. Дженнифер Спенс. Бритни Уолдрон. Бен Уилкинсон. Джулия Бенсон. Джим Элиасон-Описание: Главная героиня мистического триллера «Frequency» - женщина-детектив. Трудностей и заморочек ей хватает и по работе. Но её жизнь ещё больше осложняется и запутывается, когда она обнаруживает, что может общаться с отцом посредством обычного радио. Вот только он умер ещё в 1996-м году, а сейчас на дворе 2016-й. Они вступают в новые необычные отношения и начинают совместно работать над расследованием нераскрытого убийства. Связь с прошлым не проходит без последствий – «эффект бабочки» начинает вносить хаос в современность.-Доп. информация:
Релиз-группа:
Релиз подготовил:Grandfather61
Роли озвучивали: Павел Ярощик, Ольга Федорова, Константин Погодаев, Александр Дасевич
Перевод: Татьяна Масаковская
Звукорежиссер: Павел Квентов
Постер: Ксения Просветова- -Ссылка на предыдущие и альтернативные раздачи-Качество: WEB-DL / WEBrip 720p
Контейнер: MKV
Видео: H.264, 1280x718 (16:9), 23.976 fps, ~4000 kbps, 0.186 bit/pixel
Аудио # rus: AC3, 48 kHz, 6 ch, 384 kbps - OMSKBIRD
Аудио # eng: AC3, 48 kHz, 6 ch, 384 kbps
Субтитры: английские

Список серий

01. Pilot
02. Signal and Noise
03. The Near Far Problem
04. Bleed Over
05. Seven Three
06. Deviation
07. Break, Break, Break
08. Interference
09. Gray Line
10. The Edison Effect
11. Negative Copy
12. Harmonic
13. Signal Loss

MediaInfo WEB-DL

General
Unique ID : 223605158172763447010980049394275512962 (0xA838C977CFE31C4C90F8E28FC668F282)
Complete name : G:\Films\Frequency.S01.720p.WEB-DL\Frequency.S01E01.720p.WEB-DL.OmskBird.mkv
Format : Matroska
Format version : Version 4 / Version 2
File size : 1.44 GiB
Duration : 42mn 26s
Overall bit rate : 4 858 Kbps
Encoded date : UTC 2016-10-07 04:36:38
Writing application : mkvmerge v9.4.2 ('So High') 64bit
Writing library : libebml v1.3.4 + libmatroska v1.4.5
Video
ID : 1
Format : AVC
Format/Info : Advanced Video Codec
Format profile : [email protected]
Format settings, CABAC : No
Format settings, ReFrames : 2 frames
Codec ID : V_MPEG4/ISO/AVC
Duration : 42mn 26s
Bit rate : 4 088 Kbps
Width : 1 280 pixels
Height : 718 pixels
Display aspect ratio : 16:9
Frame rate mode : Constant
Frame rate : 23.976 (23976/1000) fps
Color space : YUV
Chroma subsampling : 4:2:0
Bit depth : 8 bits
Scan type : Progressive
Bits/(Pixel*Frame) : 0.186
Stream size : 1.21 GiB (84%)
Title : eng
Language : English
Default : Yes
Forced : No
Color range : Limited
Color primaries : BT.709
Transfer characteristics : BT.709
Matrix coefficients : BT.709
Audio #1
ID : 2
Format : AC-3
Format/Info : Audio Coding 3
Mode extension : CM (complete main)
Format settings, Endianness : Big
Codec ID : A_AC3
Duration : 42mn 26s
Bit rate mode : Constant
Bit rate : 384 Kbps
Channel(s) : 6 channels
Channel positions : Front: L C R, Side: L R, LFE
Sampling rate : 48.0 KHz
Frame rate : 31.250 fps (1536 spf)
Compression mode : Lossy
Stream size : 117 MiB (8%)
Title : OmskBird
Language : Russian
Default : Yes
Forced : No
Audio #2
ID : 3
Format : AC-3
Format/Info : Audio Coding 3
Mode extension : CM (complete main)
Format settings, Endianness : Big
Codec ID : A_AC3
Duration : 42mn 26s
Bit rate mode : Constant
Bit rate : 384 Kbps
Channel(s) : 6 channels
Channel positions : Front: L C R, Side: L R, LFE
Sampling rate : 48.0 KHz
Frame rate : 31.250 fps (1536 spf)
Compression mode : Lossy
Stream size : 117 MiB (8%)
Title : eng
Language : English
Default : No
Forced : No
Text
ID : 4
Format : UTF-8
Codec ID : S_TEXT/UTF8
Codec ID/Info : UTF-8 Plain Text
Duration : 41mn 54s
Bit rate : 92 bps
Count of elements : 1015
Stream size : 28.5 KiB (0%)
Title : CC
Language : English
Default : No
Forced : No

MediaInfo WEBrip

General
Unique ID : 232157879073092318700421643378328278643 (0xAEA7FB2A3C943A9E9033832B2F571673)
Complete name : G:\Films\Frequency.S01.720p.WEB-DL\Frequency.S01E04.720p.WEB-DL.OmskBird.mkv
Format : Matroska
Format version : Version 4 / Version 2
File size : 1.41 GiB
Duration : 42mn 35s
Overall bit rate : 4 727 Kbps
Encoded date : UTC 2016-10-29 06:16:10
Writing application : mkvmerge v9.4.2 ('So High') 64bit
Writing library : libebml v1.3.4 + libmatroska v1.4.5
Video
ID : 1
Format : AVC
Format/Info : Advanced Video Codec
Format profile : [email protected]
Format settings, CABAC : Yes
Format settings, ReFrames : 9 frames
Codec ID : V_MPEG4/ISO/AVC
Duration : 42mn 10s
Bit rate : 4 000 Kbps
Width : 1 280 pixels
Height : 720 pixels
Display aspect ratio : 16:9
Frame rate mode : Constant
Frame rate : 23.976 (24000/1001) fps
Color space : YUV
Chroma subsampling : 4:2:0
Bit depth : 8 bits
Scan type : Progressive
Bits/(Pixel*Frame) : 0.181
Stream size : 1.18 GiB (84%)
Writing library : x264 core 146 r2538 121396c
Encoding settings : cabac=1 / ref=9 / deblock=1:-3:-3 / analyse=0x3:0x133 / me=umh / subme=10 / psy=1 / psy_rd=1.00:0.15 / mixed_ref=1 / me_range=48 / chroma_me=1 / trellis=2 / 8x8dct=1 / cqm=0 / deadzone=21,11 / fast_pskip=1 / chroma_qp_offset=-4 / threads=12 / lookahead_threads=2 / sliced_threads=0 / nr=0 / decimate=1 / interlaced=0 / bluray_compat=0 / constrained_intra=0 / bframes=8 / b_pyramid=2 / b_adapt=2 / b_bias=0 / direct=3 / weightb=1 / open_gop=0 / weightp=2 / keyint=250 / keyint_min=23 / scenecut=40 / intra_refresh=0 / rc=2pass / mbtree=0 / bitrate=4000 / ratetol=1.0 / qcomp=0.70 / qpmin=0 / qpmax=69 / qpstep=4 / cplxblur=20.0 / qblur=0.5 / ip_ratio=1.40 / pb_ratio=1.30 / aq=1:1.00
Language : English
Default : Yes
Forced : No
Color range : Limited
Color primaries : BT.709
Transfer characteristics : BT.709
Matrix coefficients : BT.709
Audio #1
ID : 2
Format : AC-3
Format/Info : Audio Coding 3
Mode extension : CM (complete main)
Format settings, Endianness : Big
Codec ID : A_AC3
Duration : 42mn 35s
Bit rate mode : Constant
Bit rate : 384 Kbps
Channel(s) : 6 channels
Channel positions : Front: L C R, Side: L R, LFE
Sampling rate : 48.0 KHz
Frame rate : 31.250 fps (1536 spf)
Compression mode : Lossy
Stream size : 117 MiB (8%)
Title : OmskBird 5.1
Language : Russian
Default : Yes
Forced : No
Audio #2
ID : 3
Format : AC-3
Format/Info : Audio Coding 3
Mode extension : CM (complete main)
Format settings, Endianness : Big
Codec ID : A_AC3
Duration : 42mn 10s
Bit rate mode : Constant
Bit rate : 384 Kbps
Channel(s) : 6 channels
Channel positions : Front: L C R, Side: L R, LFE
Sampling rate : 48.0 KHz
Frame rate : 31.250 fps (1536 spf)
Compression mode : Lossy
Stream size : 116 MiB (8%)
Title : eng
Language : English
Default : No
Forced : No
Text
ID : 4
Format : UTF-8
Codec ID : S_TEXT/UTF8
Codec ID/Info : UTF-8 Plain Text
Duration : 41mn 34s
Bit rate : 80 bps
Count of elements : 764
Stream size : 24.6 KiB (0%)
Title : CC
Language : English
Default : No
Forced : No

Скриншоты

Внимание! Раздача ведётся путём добавления новых серий.

Внимание! Раздача ведётся путём добавления новых серий; при каждом добавлении создётся новый торрент. Чтобы начать докачку новой серии, пользователям необходимо сделать следующее:
Остановить скачивание.
Удалить старый торрент у себя из клиента (старые серии удалять не надо).
Скачать новый торрент и запустить его у себя в клиенте вместо старого, при этом указать клиенту путь в старую папку куда и должно происходить скачивание новых серий.
Ваш клиент при этом должен произвести хеширование (проверку) старой папки (если не производит сам - помогите ему сделать это), и будет докачивать только те серии которых у вас ещё нет. Старые серии при этом не удаляются, а продолжают раздаваться!
Eсли вы уже удалили старые серии, то предотвратить повторную закачку старых серий можно, отжав галочку в соответсвующих местах при запуске нового торрента. По возможности, желательно не удалять старые серии как можно дольше чтобы релизёр не столько продолжал раздавать старые серии, а смог сконцентрироваться на новых.
[freetreker.nl].t47.torrent 
 ЗОЛОТАЯ РАЗДАЧА! СКАЧАННОЕ НЕ ЗАСЧИТЫВАЕТСЯ! 
Торрент: Зарегистрирован [ 2017-07-23 07:07 ] · 0DFBBDFEC3588ECC8C93FF6489D02AAD6CEC3E28

Скачать .torrent

Скачать

48 KB

Статус: проверено
Скачан: 0 раз
Размер: 18,55 GB
terms.php
Похожие темы:
[Профиль] [ЛС]
Показать сообщения:    
Ответить на тему

Текущее время: 13-Дек 23:11

Часовой пояс: UTC ± 0



Вы не можете начинать темы
Вы не можете отвечать на сообщения
Вы не можете редактировать свои сообщения
Вы не можете удалять свои сообщения
Вы не можете голосовать в опросах
Вы не можете прикреплять файлы к сообщениям
Вы можете скачивать файлы