Из Лос-Анджелеса в Вегас / LA to Vegas / Сезон 1 / Серии 1-15 (15) (Лон Зиммет) [2018, США, боевик, триллер, WEB-DL 1080p] MVO (OMSKBIRD)

Ответить на тему
Статистика раздачи
Размер:  16,34 GB   |    Зарегистрирован:  2 месяца 17 дней   |    Скачан:  0 раз
Сидов:  3  [  0 KB/s  ]   Подробная статистика пиров
 
     
 
 
Автор Сообщение

Gater ®

Пол: Не указан

Стаж: 1 год

Сообщений: 1152

Создавать темы 26-Янв-2018 10:42

[Цитировать]

-Из Лос-Анджелеса в Вегас / LA to Vegas- Год выпуска • 2018
Страна • США
Жанр • Комедия
Продолжительность • ~22 мин.
Перевод
• Профессиональный (многоголосый, закадровый) "OMSKBIRD records"
-Создатель • Лон Зиммет
В ролях • Петер Стормаре, Нэйтан Ли Грэхэм, Оливия Маклин, Дилан МакДермотт, Амир Талай, Кимберли Матула, Эд Викс, Бун Нельсон, Эдвин Хэбакон и др.-Описание • В центре сюжета компания неутомимых авантюристов. Последние годы каждого из них преследовала череда неудач, но они решили использовать свой последний шанс вытянуть счастливый билет. На последние сбережения они отправляются в город, где сбываются мечты Лас-Вегас. Каждый из героев планирует разбогатеть и начать новую жизнь. Исполнит ли заветный авиарейс из Лос-Анджелеса в Вегас их желания или неудачники потерпят очередной провал. Не только у пассажиров большие планы на эту поездку.-
Качество: Amazon WEB-DL 1080p
Формат: MKV
Видео: MPEG-4 AVC / ~ 13 Mbps / 1920х1080p / 23.976 fps / 16:9 / ~ 0.280 bit/pixel / High Level 4.0
Аудио:
Русский / Dolby Digital 2.0 / 48 kHz / 192 kbps
English / Dolby Digital 2.0 / 48 kHz / 192 kbps
Субтитры:Eng / Srt-
-

Скриншоты

MediaInfo


General
Unique ID : 223707971344104208657549938567138073319 (0xA84C968C798347F98FC3CF7BF0315AE7)
Complete name : H:\Мои Документы\Видео\РАЗДАЧИ\ЛА ТУ ВЕГАС\LA to Vegas S01 WEB-DL 1080p (OMSKBIRD)\LA to Vegas S01E01 WEB-DL 1080p (OMSKBIRD).mkv
Format : Matroska
Format version : Version 2
File size : 2.25 GiB
Duration : 22 min 38 s
Overall bit rate mode : Variable
Overall bit rate : 14.2 Mb/s
Encoded date : UTC 2018-01-25 16:20:10
Writing application : mkvmerge v4.0.0 ('The Stars were mine') сборка от Jun 6 2010 16:18:42
Writing library : libebml v1.0.0 + libmatroska v1.0.0
Video
ID : 1
Format : AVC
Format/Info : Advanced Video Codec
Format profile : High@L4
Format settings, CABAC : Yes
Format settings, RefFrames : 4 frames
Codec ID : V_MPEG4/ISO/AVC
Duration : 22 min 38 s
Bit rate mode : Variable
Bit rate : 13.5 Mb/s
Maximum bit rate : 15.0 Mb/s
Width : 1 920 pixels
Height : 1 080 pixels
Display aspect ratio : 16:9
Frame rate mode : Constant
Frame rate : 23.976 (24000/1001) FPS
Color space : YUV
Chroma subsampling : 4:2:0
Bit depth : 8 bits
Scan type : Progressive
Bits/(Pixel*Frame) : 0.272
Stream size : 2.14 GiB (95%)
Default : No
Forced : No
Color range : Limited
Color primaries : BT.709
Transfer characteristics : BT.709
Matrix coefficients : BT.709
Audio #1
ID : 2
Format : AC-3
Format/Info : Audio Coding 3
Format settings, Endianness : Big
Codec ID : A_AC3
Duration : 22 min 38 s
Bit rate mode : Constant
Bit rate : 192 kb/s
Channel(s) : 2 channels
Channel positions : Front: L R
Sampling rate : 48.0 kHz
Frame rate : 31.250 FPS (1536 SPF)
Bit depth : 16 bits
Compression mode : Lossy
Stream size : 31.1 MiB (1%)
Language : Russian
Service kind : Complete Main
Default : Yes
Forced : No
Audio #2
ID : 3
Format : AC-3
Format/Info : Audio Coding 3
Format settings, Endianness : Big
Codec ID : A_AC3
Duration : 22 min 38 s
Bit rate mode : Constant
Bit rate : 192 kb/s
Channel(s) : 2 channels
Channel positions : Front: L R
Sampling rate : 48.0 kHz
Frame rate : 31.250 FPS (1536 SPF)
Bit depth : 16 bits
Compression mode : Lossy
Stream size : 31.1 MiB (1%)
Language : English
Service kind : Complete Main
Default : No
Forced : No
Text
ID : 4
Format : UTF-8
Codec ID : S_TEXT/UTF8
Codec ID/Info : UTF-8 Plain Text
Language : English
Default : No
Forced : No
[freetreker.nl].t472.torrent 
Торрент: Зарегистрирован [ 2018-05-02 16:49 ] · 3E05919EDB0515CEB45E06C6BBAD63F9ADA93C6E

Скачать .torrent

Скачать

42 KB

Статус: проверено
Скачан: 0 раз
Размер: 16,34 GB
terms.php
Похожие темы:


Последний раз редактировалось: Gater (2018-05-02 16:49), всего редактировалось 12 раз(а)
[Профиль] [ЛС]

Gater ®

Пол: Не указан

Стаж: 1 год

Сообщений: 1152

Создавать темы 27-Янв-2018 22:31 (спустя 1 день 11 часов)

[Цитировать]

+2 и 3
[Профиль] [ЛС]

Gater ®

Пол: Не указан

Стаж: 1 год

Сообщений: 1152

Создавать темы 29-Янв-2018 20:36 (спустя 1 день 22 часа)

[Цитировать]

+4
[Профиль] [ЛС]

Gater ®

Пол: Не указан

Стаж: 1 год

Сообщений: 1152

Создавать темы 07-Фев-2018 17:13 (спустя 8 дней)

[Цитировать]

+5
[Профиль] [ЛС]

Gater ®

Пол: Не указан

Стаж: 1 год

Сообщений: 1152

Создавать темы 28-Фев-2018 19:31 (спустя 21 день)

[Цитировать]

+6
[Профиль] [ЛС]

Gater ®

Пол: Не указан

Стаж: 1 год

Сообщений: 1152

Создавать темы 07-Мар-2018 21:53 (спустя 7 дней)

[Цитировать]

Добавлена 7-ая серия.
[Профиль] [ЛС]

Gater ®

Пол: Не указан

Стаж: 1 год

Сообщений: 1152

Создавать темы 15-Мар-2018 06:51 (спустя 7 дней)

[Цитировать]

Добавлена 8-ая серия.
[Профиль] [ЛС]

Gater ®

Пол: Не указан

Стаж: 1 год

Сообщений: 1152

Создавать темы 22-Мар-2018 10:29 (спустя 7 дней)

[Цитировать]

Добавлена 9-ая серия.
[Профиль] [ЛС]

Gater ®

Пол: Не указан

Стаж: 1 год

Сообщений: 1152

Создавать темы 29-Мар-2018 10:38 (спустя 7 дней)

[Цитировать]

Добавлена 10-ая серия.
[Профиль] [ЛС]

Gater ®

Пол: Не указан

Стаж: 1 год

Сообщений: 1152

Создавать темы 04-Апр-2018 16:54 (спустя 6 дней)

[Цитировать]

Добавлена 11 серия.
[Профиль] [ЛС]

Gater ®

Пол: Не указан

Стаж: 1 год

Сообщений: 1152

Создавать темы 11-Апр-2018 20:44 (спустя 7 дней)

[Цитировать]

Добавлена 12 серия.
[Профиль] [ЛС]

Gater ®

Пол: Не указан

Стаж: 1 год

Сообщений: 1152

Создавать темы 19-Апр-2018 08:41 (спустя 7 дней)

[Цитировать]

Добавлена 13 серия.
[Профиль] [ЛС]

Gater ®

Пол: Не указан

Стаж: 1 год

Сообщений: 1152

Создавать темы 26-Апр-2018 16:48 (спустя 7 дней)

[Цитировать]

Добавлена 14 серия.
[Профиль] [ЛС]

Gater ®

Пол: Не указан

Стаж: 1 год

Сообщений: 1152

Создавать темы 02-Май-2018 16:51 (спустя 6 дней)

[Цитировать]

Добавлена 15 серия.
Финал сезона.
[Профиль] [ЛС]
Показать сообщения:    
Ответить на тему

Текущее время: 19-Июл 19:32

Часовой пояс: UTC ± 0



Вы не можете начинать темы
Вы не можете отвечать на сообщения
Вы не можете редактировать свои сообщения
Вы не можете удалять свои сообщения
Вы не можете голосовать в опросах
Вы не можете прикреплять файлы к сообщениям
Вы можете скачивать файлы