Из Лос-Анджелеса в Вегас / LA to Vegas / Сезон 1 / Серии 1-15 (15) (Лон Зиммет) [2018, США, боевик, триллер, WEB-DLRip 720p] MVO (OMSKBIRD)

Ответить на тему
Статистика раздачи
Размер:  7,42 GB   |    Зарегистрирован:  4 месяца 16 дней   |    Скачан:  0 раз

Полного источника не было: 1 месяц 24 дня

 
     
 
 
 
Автор Сообщение

Gater ®

Пол: Не указан

Стаж: 1 год 2 месяца

Сообщений: 1375

Создавать темы 26-Янв-2018 10:42

[Цитировать]

-Из Лос-Анджелеса в Вегас / LA to Vegas- Год выпуска • 2018
Страна • США
Жанр • Комедия
Продолжительность • ~22 мин.
Перевод
• Профессиональный (многоголосый, закадровый) "OMSKBIRD records"
-Создатель • Лон Зиммет
В ролях • Петер Стормаре, Нэйтан Ли Грэхэм, Оливия Маклин, Дилан МакДермотт, Амир Талай, Кимберли Матула, Эд Викс, Бун Нельсон, Эдвин Хэбакон и др.-Описание • В центре сюжета компания неутомимых авантюристов. Последние годы каждого из них преследовала череда неудач, но они решили использовать свой последний шанс вытянуть счастливый билет. На последние сбережения они отправляются в город, где сбываются мечты Лас-Вегас. Каждый из героев планирует разбогатеть и начать новую жизнь. Исполнит ли заветный авиарейс из Лос-Анджелеса в Вегас их желания или неудачники потерпят очередной провал. Не только у пассажиров большие планы на эту поездку.-
Качество: WEB-DLRip 720p
Формат: MKV
Видео: MPEG-4 AVC / ~ 3000 kbps / 1280х720p / 23.976 fps / 16:9
Аудио:
Русский / Dolby Digital 2.0 / 48 kHz / 192 kbps-
-

Скриншоты

MediaInfo


General
Unique ID : 246544342214830868984416028926205354636 (0xB97AB68FA09B13F883DF407857A1E28C)
Complete name : H:\Мои Документы\Видео\РАЗДАЧИ\ЛА ТУ ВЕГАС\LA to Vegas S01 WEB-DLRip 720p (OMSKBIRD)\LA to Vegas S01E01 WEB-DLRip 720p (OMSKBIRD).mkv
Format : Matroska
Format version : Version 2
File size : 529 MiB
Duration : 23 min 16 s
Overall bit rate : 3 175 kb/s
Encoded date : UTC 2018-01-25 16:17:46
Writing application : mkvmerge v4.0.0 ('The Stars were mine') сборка от Jun 6 2010 16:18:42
Writing library : libebml v1.0.0 + libmatroska v1.0.0
Video
ID : 1
Format : AVC
Format/Info : Advanced Video Codec
Format profile : Baseline@L3.2
Format settings, CABAC : No
Format settings, RefFrames : 3 frames
Format settings, GOP : M=1, N=23
Codec ID : V_MPEG4/ISO/AVC
Duration : 23 min 16 s
Bit rate : 2 920 kb/s
Width : 1 280 pixels
Height : 720 pixels
Display aspect ratio : 16:9
Frame rate mode : Constant
Frame rate : 23.976 (24000/1001) FPS
Standard : NTSC
Color space : YUV
Chroma subsampling : 4:2:0
Bit depth : 8 bits
Scan type : Progressive
Bits/(Pixel*Frame) : 0.132
Stream size : 486 MiB (92%)
Language : English
Default : Yes
Forced : No
Color range : Limited
Color primaries : BT.709
Transfer characteristics : BT.709
Matrix coefficients : BT.709
Audio
ID : 2
Format : AC-3
Format/Info : Audio Coding 3
Format settings, Endianness : Big
Codec ID : A_AC3
Duration : 23 min 16 s
Bit rate mode : Constant
Bit rate : 192 kb/s
Channel(s) : 2 channels
Channel positions : Front: L R
Sampling rate : 48.0 kHz
Frame rate : 31.250 FPS (1536 SPF)
Bit depth : 16 bits
Compression mode : Lossy
Stream size : 32.0 MiB (6%)
Service kind : Complete Main
Default : Yes
Forced : No
[freetreker.nl].t473.torrent 
Торрент: Зарегистрирован [ 2018-05-02 16:49 ] · BF5DEB637F189552FAACE6466AB070034A60F56C

Скачать .torrent

Скачать

20 KB

Статус: проверено
Скачан: 0 раз
Размер: 7,42 GB
terms.php
Похожие темы:


Последний раз редактировалось: Gater (2018-05-02 16:49), всего редактировалось 12 раз(а)
[Профиль] [ЛС]

Gater ®

Пол: Не указан

Стаж: 1 год 2 месяца

Сообщений: 1375

Создавать темы 27-Янв-2018 22:31 (спустя 1 день 11 часов)

[Цитировать]

+2 и 3
[Профиль] [ЛС]

Gater ®

Пол: Не указан

Стаж: 1 год 2 месяца

Сообщений: 1375

Создавать темы 29-Янв-2018 20:36 (спустя 1 день 22 часа)

[Цитировать]

+4
[Профиль] [ЛС]

Gater ®

Пол: Не указан

Стаж: 1 год 2 месяца

Сообщений: 1375

Создавать темы 07-Фев-2018 17:13 (спустя 8 дней)

[Цитировать]

+5
[Профиль] [ЛС]

Gater ®

Пол: Не указан

Стаж: 1 год 2 месяца

Сообщений: 1375

Создавать темы 28-Фев-2018 19:31 (спустя 21 день)

[Цитировать]

+6
[Профиль] [ЛС]

Gater ®

Пол: Не указан

Стаж: 1 год 2 месяца

Сообщений: 1375

Создавать темы 07-Мар-2018 21:53 (спустя 7 дней)

[Цитировать]

Добавлена 7-ая серия.
[Профиль] [ЛС]

Gater ®

Пол: Не указан

Стаж: 1 год 2 месяца

Сообщений: 1375

Создавать темы 15-Мар-2018 06:51 (спустя 7 дней)

[Цитировать]

Добавлена 8-ая серия.
[Профиль] [ЛС]

Gater ®

Пол: Не указан

Стаж: 1 год 2 месяца

Сообщений: 1375

Создавать темы 22-Мар-2018 10:29 (спустя 7 дней)

[Цитировать]

Добавлена 9-ая серия.
[Профиль] [ЛС]

Gater ®

Пол: Не указан

Стаж: 1 год 2 месяца

Сообщений: 1375

Создавать темы 29-Мар-2018 10:38 (спустя 7 дней)

[Цитировать]

Добавлена 10-ая серия.
[Профиль] [ЛС]

Gater ®

Пол: Не указан

Стаж: 1 год 2 месяца

Сообщений: 1375

Создавать темы 04-Апр-2018 16:54 (спустя 6 дней)

[Цитировать]

Добавлена 11 серия.
[Профиль] [ЛС]

Gater ®

Пол: Не указан

Стаж: 1 год 2 месяца

Сообщений: 1375

Создавать темы 11-Апр-2018 20:41 (спустя 7 дней)

[Цитировать]

Добавлена 12 серия.
[Профиль] [ЛС]

Gater ®

Пол: Не указан

Стаж: 1 год 2 месяца

Сообщений: 1375

Создавать темы 19-Апр-2018 08:41 (спустя 7 дней)

[Цитировать]

Добавлена 13 серия.
[Профиль] [ЛС]

Gater ®

Пол: Не указан

Стаж: 1 год 2 месяца

Сообщений: 1375

Создавать темы 26-Апр-2018 16:48 (спустя 7 дней)

[Цитировать]

Добавлена 14 серия.
[Профиль] [ЛС]

Gater ®

Пол: Не указан

Стаж: 1 год 2 месяца

Сообщений: 1375

Создавать темы 02-Май-2018 16:50 (спустя 6 дней)

[Цитировать]

Добавлена 15 серия.
Финал сезона.
[Профиль] [ЛС]
Показать сообщения:    
Ответить на тему

Текущее время: 19-Сен 14:36

Часовой пояс: UTC ± 0



Вы не можете начинать темы
Вы не можете отвечать на сообщения
Вы не можете редактировать свои сообщения
Вы не можете удалять свои сообщения
Вы не можете голосовать в опросах
Вы не можете прикреплять файлы к сообщениям
Вы можете скачивать файлы