Видоизмененный углерод / Altered Carbon / Сезон 1 / Серии 1-10 (10) (Лаэта Калогридис) [2018, США, фантастика, WEBRip] MVO (OMSKBIRD)

Ответить на тему
Статистика раздачи
Размер:  7,3 GB   |    Зарегистрирован:  2 месяца 21 день   |    Скачан:  0 раз

Полного источника не было: 2 месяца 12 дней

 
     
 
 
 
Автор Сообщение

Gater ®

Пол: Не указан

Стаж: 9 месяцев 17 дней

Сообщений: 972

Создавать темы 03-Фев-2018 18:09

[Цитировать]

-Видоизмененный углерод / Altered Carbon- Год выпуска • 2018
Страна • США
Жанр • фантастика
Продолжительность • ~60 мин.
Перевод
• Профессиональный (многоголосый, закадровый) "OMSKBIRD records"
-Создатель • Лаэта Калогридис
В ролях • Юэль Киннаман, Джеймс Пьюрфой, Кристин Леман, Антонио Марциале, Крис Коннер, Хиро Канагава, Алика Аутран, Тич Грант, Хэйли Лоу, Заф Пару и др.-Описание • Земля, XXVII век. Мир, в котором появилась возможность «сгружать» человеческое сознание и личность из одного тела в другое. Идеальный мир и для преступников, и для полицейских, и для армии, но вряд ли идеальный для бывшего военного спецназовца Такеси Ковача, которого миллиардер Бэнкрофт нанял для расследования гибели одного из своих тел. Внешне — явное самоубийство. В действительности — явное убийство. Вот только воспоминания об убийце уничтожены вместе с телом-клоном.-Реклама: Присутствует.-
Качество: WEBRip
Формат: AVI
Видео: Xvid / ~ 1800 kbps / 720х400p / 23.976 fps / 16:9
Аудио:
Русский / Dolby Digital 2.0 / 48 kHz / 192 kbps-
-

Скриншоты

MediaInfo


General
Complete name : H:\Мои Документы\Видео\РАЗДАЧИ\УГЛЕРОД\Altered Carbon S01 WEBRip (OMSKBIRD)\Altered Carbon S01E01 WEBRip (OMSKBIRD).avi
Format : AVI
Format/Info : Audio Video Interleave
File size : 817 MiB
Duration : 59 min 30 s
Overall bit rate : 1 920 kb/s
Writing application : VirtualDubMod 1.5.10.3 | www.virtualdub-fr.org || (build 2550/release)
Writing library : VirtualDubMod build 2550/release
Video
ID : 0
Format : MPEG-4 Visual
Format profile : Advanced Simple@L5
Format settings, BVOP : 1
Format settings, QPel : No
Format settings, GMC : No warppoints
Format settings, Matrix : Default (H.263)
Codec ID : XVID
Codec ID/Hint : XviD
Duration : 59 min 30 s
Bit rate : 1 719 kb/s
Width : 720 pixels
Height : 400 pixels
Display aspect ratio : 16:9
Frame rate : 23.976 (24000/1001) FPS
Color space : YUV
Chroma subsampling : 4:2:0
Bit depth : 8 bits
Scan type : Progressive
Compression mode : Lossy
Bits/(Pixel*Frame) : 0.249
Stream size : 732 MiB (90%)
Writing library : XviD 67
Audio
ID : 1
Format : AC-3
Format/Info : Audio Coding 3
Format settings, Endianness : Big
Codec ID : 2000
Duration : 59 min 30 s
Bit rate mode : Constant
Bit rate : 192 kb/s
Channel(s) : 2 channels
Channel positions : Front: L R
Sampling rate : 48.0 kHz
Frame rate : 31.250 FPS (1536 SPF)
Bit depth : 16 bits
Compression mode : Lossy
Stream size : 81.7 MiB (10%)
Alignment : Split accross interleaves
Interleave, duration : 42 ms (1.00 video frame)
Interleave, preload duratio : 500 ms
Service kind : Complete Main
[freetreker.nl].t478.torrent 
Торрент: Зарегистрирован [ 2018-02-05 17:15 ] · 1D1F8A2E3F1618327B3BD3A52BAA1E24EADB0BAC

Скачать .torrent

Скачать

19 KB

Статус: проверено
Скачан: 0 раз
Размер: 7,3 GB
terms.php
Похожие темы:


Последний раз редактировалось: Gater (2018-02-05 17:15), всего редактировалось 1 раз
[Профиль] [ЛС]

Gater ®

Пол: Не указан

Стаж: 9 месяцев 17 дней

Сообщений: 972

Создавать темы 04-Фев-2018 17:51 (спустя 23 часа)

[Цитировать]

+3-5
[Профиль] [ЛС]

Gater ®

Пол: Не указан

Стаж: 9 месяцев 17 дней

Сообщений: 972

Создавать темы 05-Фев-2018 17:16 (спустя 23 часа)

[Цитировать]

+6-10.
Сезон полностью.
[Профиль] [ЛС]
Показать сообщения:    
Ответить на тему

Текущее время: 26-Апр 19:22

Часовой пояс: UTC ± 0



Вы не можете начинать темы
Вы не можете отвечать на сообщения
Вы не можете редактировать свои сообщения
Вы не можете удалять свои сообщения
Вы не можете голосовать в опросах
Вы не можете прикреплять файлы к сообщениям
Вы можете скачивать файлы