Звёздные врата: Истоки / Stargate Origins / Сезон 1 / Серии 1-10 (10) (Мерседес Морган) [2018, США, фантастика, веб-сериал, WEB-DL 1080p] MVO (OMSKBIRD)

Ответить на тему
Статистика раздачи
Размер:  3,06 GB   |    Зарегистрирован:  4 месяца 10 дней   |    Скачан:  0 раз

Полного источника не было: 3 месяца 26 дней

 
     
 
 
 
Автор Сообщение

Gater ®

Пол: Не указан

Стаж: 1 год

Сообщений: 1152

Создавать темы 15-Фев-2018 19:15

[Цитировать]

-Звёздные врата: Истоки / Stargate Origins- Год выпуска • 2018
Страна • США
Жанр • фантастика, веб-сериал
Продолжительность • ~10 мин.
Перевод
• Профессиональный (многоголосый, закадровый) "OMSKBIRD records"
-Создатель • Мерседес Морган
В ролях • Элли Галл, Коннор Триннир, Филипп Александр, Шван Аладдин, Салом Азизи и др.-Описание • Главной действующей героиней приквела станет молодая Кэтрин Лэнгфорд, дочь профессора археологии Пола Лэнгфорда, которая в детстве помогла найти Звездные врата и в течение нескольких десятилетий пыталась выяснить, как заставить их работать. Кэтрин предстоит совершить неожиданное путешествие в целях разгадки тайны, лежащей за Звездными вратами, и спасения мира от невообразимого мрака.-Реклама: Присутствует.-
Качество: WEB-DL 1080p
Формат: MKV
Видео: MPEG-4 AVC / ~ 3600 kbps / 1920х960p / 23.976 fps / 16:9 / ~ 0.080 bit/pixel / Baseline Level 4.0
Аудио:
Русский / Dolby Digital 2.0 / 48 kHz / 192 kbps
English / Dolby Digital 2.0 / 48 kHz / 192 kbps-
-

Скриншоты

MediaInfo


General
Unique ID : 198807805083733481645861806724276211513 (0x9590FD91556D973DA67F10B8D01ACF39)
Complete name : H:\Мои Документы\Видео\РАЗДАЧИ\Старгейт\Stargate Origins S01 WEB-DL 1080p (OMSKBIRD)\Stargate Origins S01E01 WEB-DL 1080p (OMSKBIRD).mkv
Format : Matroska
Format version : Version 2
File size : 288 MiB
Duration : 10 min 6 s
Overall bit rate mode : Constant
Overall bit rate : 3 985 kb/s
Encoded date : UTC 2018-02-15 15:26:58
Writing application : mkvmerge v4.0.0 ('The Stars were mine') сборка от Jun 6 2010 16:18:42
Writing library : libebml v1.0.0 + libmatroska v1.0.0
Video
ID : 1
Format : AVC
Format/Info : Advanced Video Codec
Format profile : Baseline@L4
Format settings, CABAC : No
Format settings, RefFrames : 1 frame
Codec ID : V_MPEG4/ISO/AVC
Duration : 10 min 6 s
Bit rate mode : Constant
Bit rate : 3 600 kb/s
Width : 1 920 pixels
Height : 960 pixels
Display aspect ratio : 2.000
Frame rate mode : Constant
Frame rate : 23.976 (23976/1000) FPS
Original frame rate : 23.976 (24000/1001) FPS
Standard : NTSC
Color space : YUV
Chroma subsampling : 4:2:0
Bit depth : 8 bits
Scan type : Progressive
Bits/(Pixel*Frame) : 0.081
Stream size : 254 MiB (88%)
Default : No
Forced : No
Color range : Limited
Color primaries : BT.709
Transfer characteristics : BT.709
Matrix coefficients : BT.709
Audio #1
ID : 2
Format : AC-3
Format/Info : Audio Coding 3
Format settings, Endianness : Big
Codec ID : A_AC3
Duration : 10 min 6 s
Bit rate mode : Constant
Bit rate : 192 kb/s
Channel(s) : 2 channels
Channel positions : Front: L R
Sampling rate : 48.0 kHz
Frame rate : 31.250 FPS (1536 SPF)
Bit depth : 16 bits
Compression mode : Lossy
Delay relative to video : -36 ms
Stream size : 13.9 MiB (5%)
Language : Russian
Service kind : Complete Main
Default : Yes
Forced : No
Audio #2
ID : 3
Format : AC-3
Format/Info : Audio Coding 3
Format settings, Endianness : Big
Codec ID : A_AC3
Duration : 10 min 6 s
Bit rate mode : Constant
Bit rate : 192 kb/s
Channel(s) : 2 channels
Channel positions : Front: L R
Sampling rate : 48.0 kHz
Frame rate : 31.250 FPS (1536 SPF)
Bit depth : 16 bits
Compression mode : Lossy
Delay relative to video : -36 ms
Stream size : 13.9 MiB (5%)
Language : English
Service kind : Complete Main
Default : No
Forced : No
[freetreker.nl].t481.torrent 
Торрент: Зарегистрирован [ 2018-03-09 20:10 ] · B429F68BD06D09A2E78C96A2B5E1A4159553B7E5

Скачать .torrent

Скачать

16 KB

Статус: проверено
Скачан: 0 раз
Размер: 3,06 GB
terms.php
Похожие темы:


Последний раз редактировалось: Gater (2018-03-09 20:10), всего редактировалось 3 раз(а)
[Профиль] [ЛС]

Gater ®

Пол: Не указан

Стаж: 1 год

Сообщений: 1152

Создавать темы 25-Фев-2018 10:32 (спустя 9 дней)

[Цитировать]

Добавлена 4 и 5 серия.
[Профиль] [ЛС]

Gater ®

Пол: Не указан

Стаж: 1 год

Сообщений: 1152

Создавать темы 02-Мар-2018 13:41 (спустя 5 дней)

[Цитировать]

Добавлена 6 и 7 серия.
[Профиль] [ЛС]

Gater ®

Пол: Не указан

Стаж: 1 год

Сообщений: 1152

Создавать темы 09-Мар-2018 20:12 (спустя 7 дней)

[Цитировать]

+8-10
Финал
[Профиль] [ЛС]
Показать сообщения:    
Ответить на тему

Текущее время: 20-Июл 03:10

Часовой пояс: UTC ± 0



Вы не можете начинать темы
Вы не можете отвечать на сообщения
Вы не можете редактировать свои сообщения
Вы не можете удалять свои сообщения
Вы не можете голосовать в опросах
Вы не можете прикреплять файлы к сообщениям
Вы можете скачивать файлы