Звёздные врата: Истоки / Stargate Origins / Сезон 1 / Серии 1-10 (10) (Крис Картер) [2018, США, фантастика, веб-сериал, WEB-DLRip 720p] MVO (OMSKBIRD)

Ответить на тему
Статистика раздачи
Размер:  2,52 GB   |    Зарегистрирован:  6 месяцев 13 дней   |    Скачан:  0 раз

Полного источника не было: 5 месяцев 26 дней

 
     
 
 
 
Автор Сообщение

Gater ®

Пол: Не указан

Стаж: 1 год 2 месяца

Сообщений: 1378

Создавать темы 15-Фев-2018 19:16

[Цитировать]

-Звёздные врата: Истоки / Stargate Origins- Год выпуска • 2018
Страна • США
Жанр • фантастика, веб-сериал
Продолжительность • ~10 мин.
Перевод
• Профессиональный (многоголосый, закадровый) "OMSKBIRD records"
-Создатель • Мерседес Морган
В ролях • Элли Галл, Коннор Триннир, Филипп Александр, Шван Аладдин, Салом Азизи и др.-Описание • Главной действующей героиней приквела станет молодая Кэтрин Лэнгфорд, дочь профессора археологии Пола Лэнгфорда, которая в детстве помогла найти Звездные врата и в течение нескольких десятилетий пыталась выяснить, как заставить их работать. Кэтрин предстоит совершить неожиданное путешествие в целях разгадки тайны, лежащей за Звездными вратами, и спасения мира от невообразимого мрака.-Реклама: Присутствует.-
Качество: WEB-DLRip 720p
Формат: MKV
Видео: MPEG-4 AVC / ~ 3000 kbps / 1280х720p / 23.976 fps / 16:9
Аудио:
Русский / Dolby Digital 2.0 / 48 kHz / 192 kbps-
-

Скриншоты

MediaInfo


General
Unique ID : 252660814553027984329888121592607392051 (0xBE14B3EE1D689E09A2426454863BC133)
Complete name : H:\Мои Документы\Видео\РАЗДАЧИ\Старгейт\Stargate Origins S01 WEB-DLRip 720p (OMSKBIRD)\Stargate Origins S01E01 WEB-DLRip 720p (OMSKBIRD).mkv
Format : Matroska
Format version : Version 2
File size : 229 MiB
Duration : 10 min 43 s
Overall bit rate : 2 982 kb/s
Encoded date : UTC 2018-02-15 15:27:30
Writing application : mkvmerge v4.0.0 ('The Stars were mine') сборка от Jun 6 2010 16:18:42
Writing library : libebml v1.0.0 + libmatroska v1.0.0
Video
ID : 1
Format : AVC
Format/Info : Advanced Video Codec
Format profile : Main@L3.2
Format settings, CABAC : Yes
Format settings, RefFrames : 3 frames
Codec ID : V_MPEG4/ISO/AVC
Duration : 10 min 43 s
Bit rate : 2 731 kb/s
Width : 1 280 pixels
Height : 720 pixels
Display aspect ratio : 16:9
Frame rate mode : Constant
Frame rate : 23.976 (24000/1001) FPS
Standard : PAL
Color space : YUV
Chroma subsampling : 4:2:0
Bit depth : 8 bits
Scan type : Progressive
Bits/(Pixel*Frame) : 0.124
Stream size : 209 MiB (92%)
Language : English
Default : Yes
Forced : No
Color range : Limited
Color primaries : BT.709
Transfer characteristics : BT.709
Matrix coefficients : BT.709
Audio
ID : 2
Format : AC-3
Format/Info : Audio Coding 3
Format settings, Endianness : Big
Codec ID : A_AC3
Duration : 10 min 43 s
Bit rate mode : Constant
Bit rate : 192 kb/s
Channel(s) : 2 channels
Channel positions : Front: L R
Sampling rate : 48.0 kHz
Frame rate : 31.250 FPS (1536 SPF)
Bit depth : 16 bits
Compression mode : Lossy
Stream size : 14.7 MiB (6%)
Service kind : Complete Main
Default : Yes
Forced : No
[freetreker.nl].t482.torrent 
Торрент: Зарегистрирован [ 2018-03-09 20:10 ] · B65DC0FB171D2AE2FA050C459039483E59791632

Скачать .torrent

Скачать

14 KB

Статус: проверено
Скачан: 0 раз
Размер: 2,52 GB
terms.php
Похожие темы:


Последний раз редактировалось: Gater (2018-03-09 20:10), всего редактировалось 2 раз(а)
[Профиль] [ЛС]

Gater ®

Пол: Не указан

Стаж: 1 год 2 месяца

Сообщений: 1378

Создавать темы 24-Фев-2018 18:36 (спустя 8 дней)

[Цитировать]

+4 и 5
[Профиль] [ЛС]

Gater ®

Пол: Не указан

Стаж: 1 год 2 месяца

Сообщений: 1378

Создавать темы 02-Мар-2018 12:22 (спустя 5 дней)

[Цитировать]

+6 и 7
[Профиль] [ЛС]

Gater ®

Пол: Не указан

Стаж: 1 год 2 месяца

Сообщений: 1378

Создавать темы 09-Мар-2018 20:12 (спустя 7 дней)

[Цитировать]

+8-10
Финал
[Профиль] [ЛС]
Показать сообщения:    
Ответить на тему

Текущее время: 23-Сен 14:41

Часовой пояс: UTC ± 0



Вы не можете начинать темы
Вы не можете отвечать на сообщения
Вы не можете редактировать свои сообщения
Вы не можете удалять свои сообщения
Вы не можете голосовать в опросах
Вы не можете прикреплять файлы к сообщениям
Вы можете скачивать файлы