Звёздные врата: Истоки / Stargate Origins / Сезон 1 / Серии 1-10 (10) (Крис Картер) [2018, США, фантастика, веб-сериал, WEB-DLRip] MVO (OMSKBIRD)

Ответить на тему
Статистика раздачи
Размер:  1,58 GB   |    Зарегистрирован:  6 месяцев 9 дней   |    Скачан:  0 раз

Полного источника не было: 5 месяцев 25 дней

 
     
 
 
 
Автор Сообщение

Gater ®

Пол: Не указан

Стаж: 1 год 2 месяца

Сообщений: 1375

Создавать темы 15-Фев-2018 19:16

[Цитировать]

-Звёздные врата: Истоки / Stargate Origins- Год выпуска • 2018
Страна • США
Жанр • фантастика, веб-сериал
Продолжительность • ~10 мин.
Перевод
• Профессиональный (многоголосый, закадровый) "OMSKBIRD records"
-Создатель • Мерседес Морган
В ролях • Элли Галл, Коннор Триннир, Филипп Александр, Шван Аладдин, Салом Азизи и др.-Описание • Главной действующей героиней приквела станет молодая Кэтрин Лэнгфорд, дочь профессора археологии Пола Лэнгфорда, которая в детстве помогла найти Звездные врата и в течение нескольких десятилетий пыталась выяснить, как заставить их работать. Кэтрин предстоит совершить неожиданное путешествие в целях разгадки тайны, лежащей за Звездными вратами, и спасения мира от невообразимого мрака.-Реклама: Присутствует.-
Качество: WEB-DLRip
Формат: AVI
Видео: MPEG-4 AVC / ~ 1800 kbps / 720х400p / 23.976 fps / 16:9
Аудио:
Русский / Dolby Digital 2.0 / 48 kHz / 192 kbps-
-

Скриншоты

MediaInfo


General
Complete name : H:\Мои Документы\Видео\РАЗДАЧИ\Старгейт\Stargate Origins S01 WEB-DLRip (OMSKBIRD)\Stargate Origins S01E01 WEB-DLRip (OMSKBIRD).avi
Format : AVI
Format/Info : Audio Video Interleave
File size : 143 MiB
Duration : 10 min 43 s
Overall bit rate : 1 869 kb/s
Writing application : VirtualDubMod 1.5.10.3 | www.virtualdub-fr.org || (build 2550/release)
Writing library : VirtualDubMod build 2550/release
Video
ID : 0
Format : MPEG-4 Visual
Format profile : Advanced Simple@L5
Format settings, BVOP : 1
Format settings, QPel : No
Format settings, GMC : No warppoints
Format settings, Matrix : Default (H.263)
Codec ID : XVID
Codec ID/Hint : XviD
Duration : 10 min 43 s
Bit rate : 1 667 kb/s
Width : 720 pixels
Height : 400 pixels
Display aspect ratio : 16:9
Frame rate : 23.976 (24000/1001) FPS
Color space : YUV
Chroma subsampling : 4:2:0
Bit depth : 8 bits
Scan type : Progressive
Compression mode : Lossy
Bits/(Pixel*Frame) : 0.241
Stream size : 128 MiB (89%)
Writing library : XviD 67
Audio
ID : 1
Format : AC-3
Format/Info : Audio Coding 3
Format settings, Endianness : Big
Codec ID : 2000
Duration : 10 min 43 s
Bit rate mode : Constant
Bit rate : 192 kb/s
Channel(s) : 2 channels
Channel positions : Front: L R
Sampling rate : 48.0 kHz
Frame rate : 31.250 FPS (1536 SPF)
Bit depth : 16 bits
Compression mode : Lossy
Stream size : 14.7 MiB (10%)
Alignment : Split accross interleaves
Interleave, duration : 42 ms (1.00 video frame)
Interleave, preload duratio : 500 ms
Service kind : Complete Main
[freetreker.nl].t483.torrent 
Торрент: Зарегистрирован [ 2018-03-09 20:10 ] · 8F8D983A8023A8ACD7E7A163093191B5927C25AB

Скачать .torrent

Скачать

17 KB

Статус: проверено
Скачан: 0 раз
Размер: 1,58 GB
terms.php
Похожие темы:


Последний раз редактировалось: Gater (2018-03-09 20:10), всего редактировалось 2 раз(а)
[Профиль] [ЛС]

Gater ®

Пол: Не указан

Стаж: 1 год 2 месяца

Сообщений: 1375

Создавать темы 24-Фев-2018 18:36 (спустя 8 дней)

[Цитировать]

+4 и 5
[Профиль] [ЛС]

Gater ®

Пол: Не указан

Стаж: 1 год 2 месяца

Сообщений: 1375

Создавать темы 02-Мар-2018 12:23 (спустя 5 дней)

[Цитировать]

+6 и 7
[Профиль] [ЛС]

Gater ®

Пол: Не указан

Стаж: 1 год 2 месяца

Сообщений: 1375

Создавать темы 09-Мар-2018 20:11 (спустя 7 дней)

[Цитировать]

+8-10
Финал
[Профиль] [ЛС]
Показать сообщения:    
Ответить на тему

Текущее время: 19-Сен 14:26

Часовой пояс: UTC ± 0



Вы не можете начинать темы
Вы не можете отвечать на сообщения
Вы не можете редактировать свои сообщения
Вы не можете удалять свои сообщения
Вы не можете голосовать в опросах
Вы не можете прикреплять файлы к сообщениям
Вы можете скачивать файлы