Обитель теней / Marrowbone (Серхио Х. Санчес) [2017 г., Ужасы, триллер, драма, WEBRip 720p]

Ответить на тему
Статистика раздачи
Размер:  2,59 GB   |    Зарегистрирован:  3 месяца 24 дня   |    Скачан:  0 раз

Полного источника не было: 2 месяца 7 дней

 
     
 
 
 
Автор Сообщение

Grandfather61 ®

Пол: Мужской

Стаж: 11 месяцев 12 дней

Сообщений: 539

Создавать темы 25-Фев-2018 08:02

[Цитировать]

Обитель теней / Marrowbone
Год выпуска: 2017
Страна: Испания
Жанр: Ужасы, триллер, драма
Продолжительность: 01:51:12
Перевод: Любительский (двухголосый закадровый) HiWayGrope
Режиссер: Серхио Х. Санчес
В ролях: Джордж МакКэй, Аня Тейлор-Джой, Чарли Хитон, Миа Гот, Мэттью Стэгг, Николя Харрисон, Кайл Соллер, Том Фишер, Пол Джессон
Описание: Мрачная тайна окутывает старинный особняк, в котором Джек уединенно живет с братьями и сестрой. Однако обитель теней открыла свои двери для прекрасной незнакомки, живущей по соседству. Она пока не знает, что здесь в любой момент зловещие силы готовы нанести удар из темноты...
Доп. информация:

Семпл
Качество: WEBRip 720p
Формат: MKV
Видео кодек: H.264
Аудио кодек: AC3
Видео: 1280x536, 23.976 fps, ~2880 kbps avg, 0.175 bit/pixel
Аудио: AC3, 48 kHz, 6 ch, 384 Kbps

MediaInfo

General
Unique ID : 175253148210146152705833682048356033266 (0x83D887523CFB3D828B84795F3745A2F2)
Complete name : E:\Marrowbone.2017.720p.WEBRip.HiWayGrope\Marrowbone.2017.720p.WEBRip.HiWayGrope.mkv
Format : Matroska
Format version : Version 4 / Version 2
File size : 2.59 GiB
Duration : 1h 51mn
Overall bit rate : 3 330 Kbps
Encoded date : UTC 2018-02-25 07:19:17
Writing application : mkvmerge v18.0.0 ('Apricity') 64-bit
Writing library : libebml v1.3.5 + libmatroska v1.4.8
Video
ID : 1
Format : AVC
Format/Info : Advanced Video Codec
Format profile : Main@L4.1
Format settings, CABAC : Yes
Format settings, ReFrames : 3 frames
Codec ID : V_MPEG4/ISO/AVC
Duration : 1h 51mn
Bit rate : 2 880 Kbps
Width : 1 280 pixels
Height : 536 pixels
Display aspect ratio : 2.40:1
Frame rate mode : Constant
Frame rate : 23.976 (24000/1001) fps
Standard : NTSC
Color space : YUV
Chroma subsampling : 4:2:0
Bit depth : 8 bits
Scan type : Progressive
Bits/(Pixel*Frame) : 0.175
Stream size : 2.24 GiB (86%)
Language : English
Default : Yes
Forced : No
Color range : Limited
Color primaries : BT.601 NTSC
Transfer characteristics : BT.601
Matrix coefficients : BT.601
Audio
ID : 2
Format : AC-3
Format/Info : Audio Coding 3
Mode extension : CM (complete main)
Format settings, Endianness : Big
Codec ID : A_AC3
Duration : 1h 51mn
Bit rate mode : Constant
Bit rate : 384 Kbps
Channel(s) : 6 channels
Channel positions : Front: L C R, Side: L R, LFE
Sampling rate : 48.0 KHz
Frame rate : 31.250 fps (1536 spf)
Compression mode : Lossy
Stream size : 305 MiB (12%)
Title : rus
Language : Russian
Default : Yes
Forced : No

Скриншоты

[freetreker.nl].t484.torrent 
Торрент: Зарегистрирован [ 2018-02-25 08:02 ] · E64487164DD8F453F1CC2152B69C369A9C87954D

Скачать .torrent

Скачать

14 KB

Статус: проверено
Скачан: 0 раз
Размер: 2,59 GB
terms.php
Похожие темы:
[Профиль] [ЛС]

Создавать темы 25-Фев-2018 08:11 (спустя 9 минут)

Топик был перенесен из форума Зарубежное кино в форум Фильмы в HD720p
Grandfather61
 
Показать сообщения:    
Ответить на тему

Текущее время: 21-Июн 17:48

Часовой пояс: UTC ± 0



Вы не можете начинать темы
Вы не можете отвечать на сообщения
Вы не можете редактировать свои сообщения
Вы не можете удалять свои сообщения
Вы не можете голосовать в опросах
Вы не можете прикреплять файлы к сообщениям
Вы можете скачивать файлы