Эш против Зловещих мертвецов / Ash vs Evil Dead / Сезон 3 / Серии 1-10 (10) (Айван Рэйми) [2018, США, трэш, боевик, комедия, WEB-DLRip] MVO (OMSKBIRD)

Ответить на тему
Статистика раздачи
Размер:  3,84 GB   |    Зарегистрирован:  7 месяцев 19 дней   |    Скачан:  0 раз

Полного источника не было: 7 месяцев 3 дня

 
     
 
 
 
Автор Сообщение

Gater ®

Пол: Не указан

Стаж: 1 год 5 месяцев

Сообщений: 1582

Создавать темы 25-Фев-2018 14:36

[Цитировать]

-Эш против Зловещих мертвецов / Ash vs Evil Dead- Год выпуска • 2018
Страна • США
Жанр • трэш, боевик, комедия
Продолжительность • ~30 мин.
Перевод
• Профессиональный (многоголосый, закадровый) "OMSKBIRD records"
-Создатель • Айван Рэйми, Сэм Рэйми, Том Спезейли
В ролях • Брюс Кэмпбелл, Джилл Мари Джонс, Дэна ДеЛоренцо, Люси Лоулесс, Рэй Сантьяго, Мими Роджерс, Хемки Мадера, Фил Пелетон, Идо Дрент, Дэмиен Гарви и др.-Описание • Последние тридцать лет Эш старательно избегал всего, что связано с воспоминаниями о зловещих мертвецах, но когда очередное нашествие дедайтов грозит уничтожить все все население планеты, Эш становится единственным шансом человечества на спасение.-Реклама: Присутствует.-Внимание! Присутствует нецензурная лексика!-
Качество: WEB-DLRip
Формат: AVI
Видео: Xvid / ~ 1800 kbps / 720х400p / 23.976 fps / 16:9
Аудио:
Русский / Dolby Digital 2.0 / 48 kHz / 192 kbps-
-

Скриншоты

MediaInfo


General
Complete name : H:\Мои Документы\Видео\РАЗДАЧИ\ЭШ\Ash vs Evil Dead S03 WEB-DLRip (OMSKBIRD)\Ash vs Evil Dead S03E01 WEB-DLRip (OMSKBIRD).avi
Format : AVI
Format/Info : Audio Video Interleave
File size : 390 MiB
Duration : 27 min 59 s
Overall bit rate : 1 949 kb/s
Writing application : VirtualDubMod 1.5.10.3 | www.virtualdub-fr.org || (build 2550/release)
Writing library : VirtualDubMod build 2550/release
Video
ID : 0
Format : MPEG-4 Visual
Format profile : Advanced [email protected]
Format settings, BVOP : 1
Format settings, QPel : No
Format settings, GMC : No warppoints
Format settings, Matrix : Default (H.263)
Codec ID : XVID
Codec ID/Hint : XviD
Duration : 27 min 59 s
Bit rate : 1 747 kb/s
Width : 720 pixels
Height : 400 pixels
Display aspect ratio : 16:9
Frame rate : 23.976 (24000/1001) FPS
Color space : YUV
Chroma subsampling : 4:2:0
Bit depth : 8 bits
Scan type : Progressive
Compression mode : Lossy
Bits/(Pixel*Frame) : 0.253
Stream size : 350 MiB (90%)
Writing library : XviD 67
Audio
ID : 1
Format : AC-3
Format/Info : Audio Coding 3
Format settings, Endianness : Big
Codec ID : 2000
Duration : 27 min 59 s
Bit rate mode : Constant
Bit rate : 192 kb/s
Channel(s) : 2 channels
Channel positions : Front: L R
Sampling rate : 48.0 kHz
Frame rate : 31.250 FPS (1536 SPF)
Bit depth : 16 bits
Compression mode : Lossy
Stream size : 38.4 MiB (10%)
Alignment : Split accross interleaves
Interleave, duration : 42 ms (1.00 video frame)
Interleave, preload duratio : 500 ms
Service kind : Complete Main
[freetreker.nl].t487.torrent 
Торрент: Зарегистрирован [ 2018-04-29 14:29 ] · 3D99E3EEDABF6BFCB7707215EB866EBA071B91BA

Скачать .torrent

Скачать

20 KB

Статус: проверено
Скачан: 0 раз
Размер: 3,84 GB
terms.php
Похожие темы:


Последний раз редактировалось: Gater (2018-04-29 14:29), всего редактировалось 9 раз(а)
[Профиль] [ЛС]

Gater ®

Пол: Не указан

Стаж: 1 год 5 месяцев

Сообщений: 1582

Создавать темы 04-Мар-2018 17:31 (спустя 7 дней)

[Цитировать]

Добавлена 2-ая серия.
[Профиль] [ЛС]

Gater ®

Пол: Не указан

Стаж: 1 год 5 месяцев

Сообщений: 1582

Создавать темы 11-Мар-2018 14:06 (спустя 6 дней)

[Цитировать]

Добавлена 3-ая серия.
[Профиль] [ЛС]

Gater ®

Пол: Не указан

Стаж: 1 год 5 месяцев

Сообщений: 1582

Создавать темы 18-Мар-2018 14:57 (спустя 7 дней)

[Цитировать]

Добавлена 4-ая серия.
[Профиль] [ЛС]

Gater ®

Пол: Не указан

Стаж: 1 год 5 месяцев

Сообщений: 1582

Создавать темы 25-Мар-2018 18:56 (спустя 7 дней)

[Цитировать]

Добавлена 5 серия.
[Профиль] [ЛС]

Gater ®

Пол: Не указан

Стаж: 1 год 5 месяцев

Сообщений: 1582

Создавать темы 02-Апр-2018 09:46 (спустя 7 дней)

[Цитировать]

Добавлена 6 серия.
[Профиль] [ЛС]

Gater ®

Пол: Не указан

Стаж: 1 год 5 месяцев

Сообщений: 1582

Создавать темы 08-Апр-2018 15:31 (спустя 6 дней)

[Цитировать]

Добавлена 7 серия.
[Профиль] [ЛС]

Gater ®

Пол: Не указан

Стаж: 1 год 5 месяцев

Сообщений: 1582

Создавать темы 15-Апр-2018 17:34 (спустя 7 дней)

[Цитировать]

Добавлена 8 серия.
[Профиль] [ЛС]

Gater ®

Пол: Не указан

Стаж: 1 год 5 месяцев

Сообщений: 1582

Создавать темы 22-Апр-2018 14:51 (спустя 6 дней)

[Цитировать]

Добавлена 9 серия.
[Профиль] [ЛС]

Gater ®

Пол: Не указан

Стаж: 1 год 5 месяцев

Сообщений: 1582

Создавать темы 29-Апр-2018 14:30 (спустя 6 дней)

[Цитировать]

Добавлена 10 серия.
Финал.
[Профиль] [ЛС]
Показать сообщения:    
Ответить на тему

Текущее время: 19-Дек 03:31

Часовой пояс: UTC ± 0



Вы не можете начинать темы
Вы не можете отвечать на сообщения
Вы не можете редактировать свои сообщения
Вы не можете удалять свои сообщения
Вы не можете голосовать в опросах
Вы не можете прикреплять файлы к сообщениям
Вы можете скачивать файлы