Эш против Зловещих мертвецов / Ash vs Evil Dead / Сезон 3 / Серии 1-8 (10) (Айван Рэйми) [2018, США, трэш, боевик, комедия, WEB-DLRip] MVO (OMSKBIRD)

Ответить на тему
Статистика раздачи
Размер:  3,04 GB   |    Зарегистрирован:  5 дней   |    Скачан:  0 раз

Полного источника не было: 5 часов

 
     
 
 
 
Автор Сообщение

Gater ®

Пол: Не указан

Стаж: 9 месяцев 11 дней

Сообщений: 948

Создавать темы 25-Фев-2018 14:36

[Цитировать]

-Эш против Зловещих мертвецов / Ash vs Evil Dead- Год выпуска • 2018
Страна • США
Жанр • трэш, боевик, комедия
Продолжительность • ~30 мин.
Перевод
• Профессиональный (многоголосый, закадровый) "OMSKBIRD records"
-Создатель • Айван Рэйми, Сэм Рэйми, Том Спезейли
В ролях • Брюс Кэмпбелл, Джилл Мари Джонс, Дэна ДеЛоренцо, Люси Лоулесс, Рэй Сантьяго, Мими Роджерс, Хемки Мадера, Фил Пелетон, Идо Дрент, Дэмиен Гарви и др.-Описание • Последние тридцать лет Эш старательно избегал всего, что связано с воспоминаниями о зловещих мертвецах, но когда очередное нашествие дедайтов грозит уничтожить все все население планеты, Эш становится единственным шансом человечества на спасение.-Реклама: Присутствует.-Внимание! Присутствует нецензурная лексика!-
Качество: WEB-DLRip
Формат: AVI
Видео: Xvid / ~ 1800 kbps / 720х400p / 23.976 fps / 16:9
Аудио:
Русский / Dolby Digital 2.0 / 48 kHz / 192 kbps-
-

Скриншоты

MediaInfo


General
Complete name : H:\Мои Документы\Видео\РАЗДАЧИ\ЭШ\Ash vs Evil Dead S03 WEB-DLRip (OMSKBIRD)\Ash vs Evil Dead S03E01 WEB-DLRip (OMSKBIRD).avi
Format : AVI
Format/Info : Audio Video Interleave
File size : 390 MiB
Duration : 27 min 59 s
Overall bit rate : 1 949 kb/s
Writing application : VirtualDubMod 1.5.10.3 | www.virtualdub-fr.org || (build 2550/release)
Writing library : VirtualDubMod build 2550/release
Video
ID : 0
Format : MPEG-4 Visual
Format profile : Advanced Simple@L5
Format settings, BVOP : 1
Format settings, QPel : No
Format settings, GMC : No warppoints
Format settings, Matrix : Default (H.263)
Codec ID : XVID
Codec ID/Hint : XviD
Duration : 27 min 59 s
Bit rate : 1 747 kb/s
Width : 720 pixels
Height : 400 pixels
Display aspect ratio : 16:9
Frame rate : 23.976 (24000/1001) FPS
Color space : YUV
Chroma subsampling : 4:2:0
Bit depth : 8 bits
Scan type : Progressive
Compression mode : Lossy
Bits/(Pixel*Frame) : 0.253
Stream size : 350 MiB (90%)
Writing library : XviD 67
Audio
ID : 1
Format : AC-3
Format/Info : Audio Coding 3
Format settings, Endianness : Big
Codec ID : 2000
Duration : 27 min 59 s
Bit rate mode : Constant
Bit rate : 192 kb/s
Channel(s) : 2 channels
Channel positions : Front: L R
Sampling rate : 48.0 kHz
Frame rate : 31.250 FPS (1536 SPF)
Bit depth : 16 bits
Compression mode : Lossy
Stream size : 38.4 MiB (10%)
Alignment : Split accross interleaves
Interleave, duration : 42 ms (1.00 video frame)
Interleave, preload duratio : 500 ms
Service kind : Complete Main

Внимание! Раздача ведётся путём добавления новых серий.

Внимание! Раздача ведётся путём добавления новых серий; при каждом добавлении создётся новый торрент. Чтобы начать докачку новой серии, пользователям необходимо сделать следующее:
Остановить скачивание.
Удалить старый торрент у себя из клиента (старые серии удалять не надо).
Скачать новый торрент и запустить его у себя в клиенте вместо старого, при этом указать клиенту путь в старую папку куда и должно происходить скачивание новых серий.
Ваш клиент при этом должен произвести хеширование (проверку) старой папки (если не производит сам - помогите ему сделать это), и будет докачивать только те серии которых у вас ещё нет. Старые серии при этом не удаляются, а продолжают раздаваться!
Eсли вы уже удалили старые серии, то предотвратить повторную закачку старых серий можно, отжав галочку в соответсвующих местах при запуске нового торрента. По возможности, желательно не удалять старые серии как можно дольше чтобы релизёр не столько продолжал раздавать старые серии, а смог сконцентрироваться на новых.
[freetreker.nl].t487.torrent 
Торрент: Зарегистрирован [ 2018-04-15 17:33 ] · 536593B50D2FDED37E41EA34DCCC97F0484CF649

Скачать .torrent

Скачать

16 KB

Статус: проверено
Скачан: 0 раз
Размер: 3,04 GB
terms.php
Похожие темы:


Последний раз редактировалось: Gater (2018-04-15 17:33), всего редактировалось 7 раз(а)
[Профиль] [ЛС]

Gater ®

Пол: Не указан

Стаж: 9 месяцев 11 дней

Сообщений: 948

Создавать темы 04-Мар-2018 17:31 (спустя 7 дней)

[Цитировать]

Добавлена 2-ая серия.
[Профиль] [ЛС]

Gater ®

Пол: Не указан

Стаж: 9 месяцев 11 дней

Сообщений: 948

Создавать темы 11-Мар-2018 14:06 (спустя 6 дней)

[Цитировать]

Добавлена 3-ая серия.
[Профиль] [ЛС]

Gater ®

Пол: Не указан

Стаж: 9 месяцев 11 дней

Сообщений: 948

Создавать темы 18-Мар-2018 14:57 (спустя 7 дней)

[Цитировать]

Добавлена 4-ая серия.
[Профиль] [ЛС]

Gater ®

Пол: Не указан

Стаж: 9 месяцев 11 дней

Сообщений: 948

Создавать темы 25-Мар-2018 18:56 (спустя 7 дней)

[Цитировать]

Добавлена 5 серия.
[Профиль] [ЛС]

Gater ®

Пол: Не указан

Стаж: 9 месяцев 11 дней

Сообщений: 948

Создавать темы 02-Апр-2018 09:46 (спустя 7 дней)

[Цитировать]

Добавлена 6 серия.
[Профиль] [ЛС]

Gater ®

Пол: Не указан

Стаж: 9 месяцев 11 дней

Сообщений: 948

Создавать темы 08-Апр-2018 15:31 (спустя 6 дней)

[Цитировать]

Добавлена 7 серия.
[Профиль] [ЛС]

Gater ®

Пол: Не указан

Стаж: 9 месяцев 11 дней

Сообщений: 948

Создавать темы 15-Апр-2018 17:34 (спустя 7 дней)

[Цитировать]

Добавлена 8 серия.
[Профиль] [ЛС]
Показать сообщения:    
Ответить на тему

Текущее время: 20-Апр 23:55

Часовой пояс: UTC ± 0



Вы не можете начинать темы
Вы не можете отвечать на сообщения
Вы не можете редактировать свои сообщения
Вы не можете удалять свои сообщения
Вы не можете голосовать в опросах
Вы не можете прикреплять файлы к сообщениям
Вы можете скачивать файлы