Призрачная башня / The Looming Tower / Сезон 1 / Серии 1-10 (10) (Крейг Зиск) [2018, США, драма, WEBRip 1080p] MVO (OMSKBIRD) Original + Eng Subs

Ответить на тему
Статистика раздачи
Размер:  16,92 GB   |    Зарегистрирован:  7 месяцев 24 дня   |    Скачан:  0 раз

Полного источника не было: 6 месяцев 29 дней

 
     
 
 
 
Автор Сообщение

Gater ®

Пол: Не указан

Стаж: 1 год 5 месяцев

Сообщений: 1558

Создавать темы 02-Мар-2018 07:56

[Цитировать]

-Призрачная башня / The Looming Tower- Год выпуска • 2018
Страна • США
Жанр • драма
Продолжительность • ~50 мин.
Перевод
• Профессиональный (многоголосый, закадровый) "OMSKBIRD records"
-Создатель • Крейг Зиск
В ролях • Джефф Дэниелс, Тахар Рахим, Питер Сарсгаард, Ренн Шмидт, Майкл Стулбарг, Элла Рэй Пек, Билл Кэмп, Алек Болдуин и др.-Описание • В центре событий — агенты ФБР и ЦРУ, которые объединяют усилия в борьбе с растущей террористической угрозой со стороны Усамы бен Ладена и «Аль-Каиды». Однако вскоре ведомства начинают соперничать друг с другом, что в итоге приводит к трагедии 11 сентября и войне в Ираке.-Реклама: Присутствует.-Внимание! Присутствует нецензурная лексика!-
Качество: WEBRip 1080p
Формат: MKV
Видео: MPEG-4 AVC / ~ 4500 kbps / 1920х1080p / 23.976 fps / 16:9 / ~ 0.090 bit/pixel / High Level 4.0
Аудио:
Русский / Dolby Digital 2.0 / 48 kHz / 192 kbps
English / Dolby Digital 2.0 / 48 kHz / 192 kbps
Субтитры: Eng / SRT-
-

Скриншоты

MediaInfo


General
Unique ID : 225360419319559615310543527925086688964 (0xA98AD6862AA87EAFA14A33F990C416C4)
Complete name : H:\Мои Документы\Видео\РАЗДАЧИ\БАШНЯ\The Looming Tower S01 WEBRip 1080p (OMSKBIRD)\The Looming Tower S01E01 WEBRip 1080p (OMSKBIRD).mkv
Format : Matroska
Format version : Version 2
File size : 1.67 GiB
Duration : 50 min 4 s
Overall bit rate : 4 771 kb/s
Encoded date : UTC 2018-03-02 07:41:30
Writing application : mkvmerge v4.0.0 ('The Stars were mine') сборка от Jun 6 2010 16:18:42
Writing library : libebml v1.0.0 + libmatroska v1.0.0
Video
ID : 1
Format : AVC
Format/Info : Advanced Video Codec
Format profile : [email protected]
Format settings, CABAC : Yes
Format settings, RefFrames : 4 frames
Codec ID : V_MPEG4/ISO/AVC
Duration : 50 min 4 s
Bit rate : 4 292 kb/s
Width : 1 920 pixels
Height : 1 080 pixels
Display aspect ratio : 16:9
Frame rate mode : Constant
Frame rate : 23.976 (24000/1001) FPS
Color space : YUV
Chroma subsampling : 4:2:0
Bit depth : 8 bits
Scan type : Progressive
Bits/(Pixel*Frame) : 0.086
Stream size : 1.50 GiB (90%)
Language : English
Default : No
Forced : No
Audio #1
ID : 2
Format : AC-3
Format/Info : Audio Coding 3
Format settings, Endianness : Big
Codec ID : A_AC3
Duration : 50 min 4 s
Bit rate mode : Constant
Bit rate : 192 kb/s
Channel(s) : 2 channels
Channel positions : Front: L R
Sampling rate : 48.0 kHz
Frame rate : 31.250 FPS (1536 SPF)
Bit depth : 16 bits
Compression mode : Lossy
Delay relative to video : -83 ms
Stream size : 68.8 MiB (4%)
Language : Russian
Service kind : Complete Main
Default : Yes
Forced : No
Audio #2
ID : 3
Format : AC-3
Format/Info : Audio Coding 3
Format settings, Endianness : Big
Codec ID : A_AC3
Duration : 50 min 4 s
Bit rate mode : Constant
Bit rate : 192 kb/s
Channel(s) : 2 channels
Channel positions : Front: L R
Sampling rate : 48.0 kHz
Frame rate : 31.250 FPS (1536 SPF)
Bit depth : 16 bits
Compression mode : Lossy
Delay relative to video : -83 ms
Stream size : 68.8 MiB (4%)
Language : English
Service kind : Complete Main
Default : No
Forced : No
Text
ID : 4
Format : UTF-8
Codec ID : S_TEXT/UTF8
Codec ID/Info : UTF-8 Plain Text
Language : English
Default : No
Forced : No
[freetreker.nl].t488.torrent 
Торрент: Зарегистрирован [ 2018-04-19 14:58 ] · D37E5FFC15E8F00C75721459ED33892CDD86AA42

Скачать .torrent

Скачать

43 KB

Статус: проверено
Скачан: 0 раз
Размер: 16,92 GB
terms.php
Похожие темы:


Последний раз редактировалось: Gater (2018-04-19 14:58), всего редактировалось 7 раз(а)
[Профиль] [ЛС]

Gater ®

Пол: Не указан

Стаж: 1 год 5 месяцев

Сообщений: 1558

Создавать темы 03-Мар-2018 12:51 (спустя 1 день 4 часа)

[Цитировать]

+2 и 3
[Профиль] [ЛС]

Gater ®

Пол: Не указан

Стаж: 1 год 5 месяцев

Сообщений: 1558

Создавать темы 08-Мар-2018 21:28 (спустя 5 дней)

[Цитировать]

+4
[Профиль] [ЛС]

Gater ®

Пол: Не указан

Стаж: 1 год 5 месяцев

Сообщений: 1558

Создавать темы 15-Мар-2018 21:09 (спустя 6 дней)

[Цитировать]

+5
[Профиль] [ЛС]

Gater ®

Пол: Не указан

Стаж: 1 год 5 месяцев

Сообщений: 1558

Создавать темы 22-Мар-2018 16:56 (спустя 6 дней)

[Цитировать]

+6
[Профиль] [ЛС]

Gater ®

Пол: Не указан

Стаж: 1 год 5 месяцев

Сообщений: 1558

Создавать темы 29-Мар-2018 10:40 (спустя 6 дней)

[Цитировать]

Добавлена 7 серия.
[Профиль] [ЛС]

Gater ®

Пол: Не указан

Стаж: 1 год 5 месяцев

Сообщений: 1558

Создавать темы 05-Апр-2018 14:32 (спустя 7 дней)

[Цитировать]

Добавлена 8 серия.
[Профиль] [ЛС]

Gater ®

Пол: Не указан

Стаж: 1 год 5 месяцев

Сообщений: 1558

Создавать темы 11-Апр-2018 20:42 (спустя 6 дней)

[Цитировать]

Добавлена 9 серия.
[Профиль] [ЛС]

Gater ®

Пол: Не указан

Стаж: 1 год 5 месяцев

Сообщений: 1558

Создавать темы 19-Апр-2018 14:58 (спустя 7 дней)

[Цитировать]

Добавлена 10 серия.
Финал.
[Профиль] [ЛС]
Показать сообщения:    
Ответить на тему

Текущее время: 13-Дек 23:17

Часовой пояс: UTC ± 0



Вы не можете начинать темы
Вы не можете отвечать на сообщения
Вы не можете редактировать свои сообщения
Вы не можете удалять свои сообщения
Вы не можете голосовать в опросах
Вы не можете прикреплять файлы к сообщениям
Вы можете скачивать файлы