Игра престолов / Game of Thrones / Сезон: 7 / Серии: 1-7 из 7 (Алан Тейлор, Даниэль Минахан) [2017, Фэнтези, драма, приключения, экранизация, WEBRip 720p] MVO OmskBird + Original

Ответить на тему
Статистика раздачи
Размер:  9,95 GB   |    Зарегистрирован:  7 месяцев 23 дня   |    Скачан:  1 раз

Полного источника не было: 6 месяцев

 
     
 
 
 
Автор Сообщение

Grandfather61 ®

Пол: Мужской

Стаж: 9 месяцев 11 дней

Сообщений: 507

Создавать темы 26-Июл-2017 09:25

[Цитировать]

--Игра престолов / Game of Thrones-- Страна: США
Жанр: Фэнтези, драма, приключения, экранизация
Продолжительность: ~00:55:00
Перевод: Профессиональный многоголосый закадровый
Доп. инфо о переводе: OmskBird
Оригинальная аудиодорожка: нет
Русские субтитры: нет-Режиссёр: Алан Тейлор, Даниэль Минахан, Дэвид Наттер, Брайан Кирк, Тимоти Ван Паттен, Дэвид Петрарка-В ролях: Лена Хиди, Питер Динклэйдж, Мишель Фэйрли, Эмилия Кларк, Кит Харингтон, Николай Костер-Валдау, Иэн Глен, Эйден Гиллен, Элфи Оуэн-Аллен, Мэйси Уильямс, Софи Тернер, Сибель Кекилли, Джеймс Космо, Стивен Диллэйн, Гетин Энтони, Гвендолин Кристи, Натали Дормер и др.-Описание: «Игра престолов» новый сериал HBO, основанный на бестселлерах Джорджа Р.Р. Мартина. В мире, где лето и зимы длятся десятилетиями, на кону корона Вестероса. Предательство, похоть, интриги и сверхъестественные силы сотрясают все четыре стороны Королевства — от плетущего интриги юга, диких восточных земель, до замерзшего севера и древней Стены, что защищает королевство от тьмы за нею. Короли и королевы, рыцари и мятежники, лжецы и благородные люди борются за власть в кровавом сражении за Железный Трон.-Доп. информация: Релиз-группа:
Перевод: Екатерина Кузнецова
Роли озвучивали: Павел Ярощик, Андрей Астров, Алексей Гнеушев, Наталья Ланц
Звукорежиссер: Павел Квентов
Постер: Ксения Просветова- -Ссылка на предыдущие и альтернативные раздачи-Качество: WEBRip 720p
Формат: MP4
Видео кодек: H.264
Аудио кодек: AC3
Видео: 1280x720 (16:9), 23.976 fps, ~3000 kbps, 0.136 bit/pixel
Аудио # rus: AC3, 48 kHz, 2 ch, 192 Kbps | OmskBird
Реклама: присутствуют вставки рекламы

Список серий

01. Dragonstone
02. Stormborn
03. The Queen's Justice
04. The Spoils of War
05. Eastwatch
06. Beyond the Wall
07. The Dragon and the Wolf

MediaInfo

General
Complete name : G:FilmsGame.of.Thrones.S07.720p.WEBRip.OmskBirdGame.of.Thrones.S07E01.720p.WEBRip.OmskBird.mp4
Format : MPEG-4
Format profile : Base Media
Codec ID : isom (isom)
File size : 1.35 GiB
Duration : 1h 1mn
Overall bit rate mode : Constant
Overall bit rate : 3 126 Kbps
Encoded date : UTC 2017-07-17 13:13:19
Tagged date : UTC 2017-07-17 13:13:19
Writing application : Yamb 2.1.0.0 [http://yamb.unite-video.com]
Video
ID : 1
Format : AVC
Format/Info : Advanced Video Codec
Format profile : Main@L3.2
Format settings, CABAC : Yes
Format settings, ReFrames : 3 frames
Codec ID : avc1
Codec ID/Info : Advanced Video Coding
Duration : 1h 1mn
Bit rate mode : Constant
Bit rate : 3 000 Kbps
Maximum bit rate : 7 037 Kbps
Width : 1 280 pixels
Height : 720 pixels
Display aspect ratio : 16:9
Frame rate mode : Constant
Frame rate : 23.976 (24000/1001) fps
Standard : NTSC
Color space : YUV
Chroma subsampling : 4:2:0
Bit depth : 8 bits
Scan type : Progressive
Bits/(Pixel*Frame) : 0.136
Stream size : 1.27 GiB (94%)
Language : English
Encoded date : UTC 2017-07-17 10:19:45
Tagged date : UTC 2017-07-17 13:14:21
Color range : Limited
Audio
ID : 2
Format : AC-3
Format/Info : Audio Coding 3
Mode extension : CM (complete main)
Format settings, Endianness : Big
Codec ID : ac-3
Duration : 1h 1mn
Bit rate mode : Constant
Bit rate : 192 Kbps
Channel(s) : 2 channels
Channel positions : Front: L R
Sampling rate : 48.0 KHz
Frame rate : 31.250 fps (1536 spf)
Bit depth : 16 bits
Compression mode : Lossy
Stream size : 85.0 MiB (6%)
Encoded date : UTC 2017-07-17 13:14:17
Tagged date : UTC 2017-07-17 13:14:21

Скриншоты

Внимание! Раздача ведётся путём добавления новых серий.

Внимание! Раздача ведётся путём добавления новых серий; при каждом добавлении создётся новый торрент. Чтобы начать докачку новой серии, пользователям необходимо сделать следующее:
Остановить скачивание.
Удалить старый торрент у себя из клиента (старые серии удалять не надо).
Скачать новый торрент и запустить его у себя в клиенте вместо старого, при этом указать клиенту путь в старую папку куда и должно происходить скачивание новых серий.
Ваш клиент при этом должен произвести хеширование (проверку) старой папки (если не производит сам - помогите ему сделать это), и будет докачивать только те серии которых у вас ещё нет. Старые серии при этом не удаляются, а продолжают раздаваться!
Eсли вы уже удалили старые серии, то предотвратить повторную закачку старых серий можно, отжав галочку в соответсвующих местах при запуске нового торрента. По возможности, желательно не удалять старые серии как можно дольше чтобы релизёр не столько продолжал раздавать старые серии, а смог сконцентрироваться на новых.
[freetreker.nl].t49.torrent 
 ЗОЛОТАЯ РАЗДАЧА! СКАЧАННОЕ НЕ ЗАСЧИТЫВАЕТСЯ! 
Торрент: Зарегистрирован [ 2017-08-28 17:30 ] · 81148292F3F4CB09A37FDEFACB6C76F2FB99922E

Скачать .torrent

Скачать

26 KB

Статус: проверено
Скачан: 1 раз
Размер: 9,95 GB
terms.php
Похожие темы:


Последний раз редактировалось: Grandfather61 (2017-08-28 17:30), всего редактировалось 5 раз(а)
[Профиль] [ЛС]

Grandfather61 ®

Пол: Мужской

Стаж: 9 месяцев 11 дней

Сообщений: 507

Создавать темы 31-Июл-2017 18:19 (спустя 5 дней)

[Цитировать]

Добавлена 3-я серия. Приятного просмотра!
[Профиль] [ЛС]

Grandfather61 ®

Пол: Мужской

Стаж: 9 месяцев 11 дней

Сообщений: 507

Создавать темы 07-Авг-2017 13:42 (спустя 6 дней)

[Цитировать]

Раздача обновлена. Добавлена 4-я серия. Приятного просмотра!
[Профиль] [ЛС]

Grandfather61 ®

Пол: Мужской

Стаж: 9 месяцев 11 дней

Сообщений: 507

Создавать темы 14-Авг-2017 16:53 (спустя 7 дней)

[Цитировать]

Добавлена 5-я серия. Приятного просмотра!
[Профиль] [ЛС]

Grandfather61 ®

Пол: Мужской

Стаж: 9 месяцев 11 дней

Сообщений: 507

Создавать темы 17-Авг-2017 14:37 (спустя 2 дня 21 час)

[Цитировать]

Добавлена 6-я серия. Приятного просмотра!
[Профиль] [ЛС]

Grandfather61 ®

Пол: Мужской

Стаж: 9 месяцев 11 дней

Сообщений: 507

Создавать темы 21-Авг-2017 15:20 (спустя 4 дня)

[Цитировать]

Раздача обновлена. Замена исходника. Приятного просмотра!
[Профиль] [ЛС]

Grandfather61 ®

Пол: Мужской

Стаж: 9 месяцев 11 дней

Сообщений: 507

Создавать темы 28-Авг-2017 17:31 (спустя 7 дней)

[Цитировать]

Добавлена 7-я серия. Приятного просмотра!
[Профиль] [ЛС]
Показать сообщения:    
Ответить на тему

Текущее время: 20-Апр 23:58

Часовой пояс: UTC ± 0



Вы не можете начинать темы
Вы не можете отвечать на сообщения
Вы не можете редактировать свои сообщения
Вы не можете удалять свои сообщения
Вы не можете голосовать в опросах
Вы не можете прикреплять файлы к сообщениям
Вы можете скачивать файлы