Вне времени / Timeless / Сезон: 2 / Серии: 1-10 из 10 (Чарльз Бисон, Нил Маршалл) [2018, США, Драма, научная фантастика, приключения, WEBRip 720p] MVO (OmskBird)

Ответить на тему
Статистика раздачи
Размер:  9,6 GB   |    Зарегистрирован:  7 месяцев 3 дня   |    Скачан:  0 раз

Полного источника не было: 5 месяцев 28 дней

 
     
 
 
 
Автор Сообщение

Grandfather61 ®

Пол: Мужской

Стаж: 1 год 5 месяцев

Сообщений: 641

Создавать темы 12-Мар-2018 19:05

[Цитировать]


Информация о фильме
Название: Вне времени
Оригинальное название: Timeless
Год выхода: 2018
Жанр: фантастика, боевик, драма, приключения
Режиссер: Нил Маршалл, Чарльз Бисон, Билл Джирхарт
В ролях: Эбигейл Спенсер, Мэтт Лантер, Малкольм Баррет, Пэтерсон Джозеф, Сакина Джаффри, Клаудия Дурмит, Горан Вишнич, Шантель Ван Сантен, Дэвид Сатклифф, Бэйли Ноубл, Мэтт Фрюэр, Сюзанна Томпсон, Хиро Канагава, Чад Рук, Майкл Кребс, Леа Кейрнс, Тревор Лернер и др.
О фильме:
Сюжет повествует о команде из трёх человек, путешествующих по времени в поисках могущественного гада, который вознамерился переписать историю человечества. Если трио не успеет сработаться и сорвать преступный план, миру, естественно, грозит катастрофа.

Страна: США, Davis Entertainment, Kripke Enterprises, MiddKid Productions, Sony Pictures Television
Продолжительность: ~ 00:44:00 серия
Перевод: Любительский (многоголосый закадровый) OmskBird
Файл
Кодек: MPEG-4 AVC/H.264
Качество: WEBRip 720p
Видео: 1280x720 (16:9), 23.976 fps, ~2900 kbps, 0.130 bit/pixel
Звук:
Аудио rus: AC3, 48 kHz, 2 ch, 192 Kbps | OmskBird
Субтитры: отсутствуют
Реклама: присутствует
Семпл
Ссылка на предыдущие и альтернативные раздачи

MediaInfo

General
Unique ID : 234720514845971039543660410484237336877 (0xB09586DD0B9C59CDA0D6F37B0965012D)
Complete name : G:FilmsTimeless.S02.720p.WEBRip.OmskBirdTimeless.S02E01.720p.WEBRip.OmskBird.mkv
Format : Matroska
Format version : Version 4 / Version 2
File size : 971 MiB
Duration : 43mn 23s
Overall bit rate : 3 128 Kbps
Encoded date : UTC 2018-03-12 18:18:35
Writing application : mkvmerge v18.0.0 ('Apricity') 64-bit
Writing library : libebml v1.3.5 + libmatroska v1.4.8
Cover : Yes
Attachments : small_cover.jpg / small_cover_land.jpg / cover.jpg / cover_land.jpg
Video
ID : 1
Format : AVC
Format/Info : Advanced Video Codec
Format profile : [email protected]
Format settings, CABAC : Yes
Format settings, ReFrames : 3 frames
Codec ID : V_MPEG4/ISO/AVC
Duration : 43mn 23s
Bit rate : 2 873 Kbps
Width : 1 280 pixels
Height : 720 pixels
Display aspect ratio : 16:9
Frame rate mode : Constant
Frame rate : 23.976 (24000/1001) fps
Standard : PAL
Color space : YUV
Chroma subsampling : 4:2:0
Bit depth : 8 bits
Scan type : Progressive
Bits/(Pixel*Frame) : 0.130
Stream size : 892 MiB (92%)
Language : English
Default : Yes
Forced : No
Color range : Limited
Color primaries : BT.709
Transfer characteristics : BT.709
Matrix coefficients : BT.709
Audio
ID : 2
Format : AC-3
Format/Info : Audio Coding 3
Mode extension : CM (complete main)
Format settings, Endianness : Big
Codec ID : A_AC3
Duration : 43mn 23s
Bit rate mode : Constant
Bit rate : 192 Kbps
Channel(s) : 2 channels
Channel positions : Front: L R
Sampling rate : 48.0 KHz
Frame rate : 31.250 fps (1536 spf)
Compression mode : Lossy
Stream size : 59.6 MiB (6%)
Title : OmskBird
Language : Russian
Default : Yes
Forced : No

Скриншоты

Внимание! Раздача ведётся путём добавления новых серий.

Внимание! Раздача ведётся путём добавления новых серий; при каждом добавлении создётся новый торрент. Чтобы начать докачку новой серии, пользователям необходимо сделать следующее:
Остановить скачивание.
Удалить старый торрент у себя из клиента (старые серии удалять не надо).
Скачать новый торрент и запустить его у себя в клиенте вместо старого, при этом указать клиенту путь в старую папку куда и должно происходить скачивание новых серий.
Ваш клиент при этом должен произвести хеширование (проверку) старой папки (если не производит сам - помогите ему сделать это), и будет докачивать только те серии которых у вас ещё нет. Старые серии при этом не удаляются, а продолжают раздаваться!
Eсли вы уже удалили старые серии, то предотвратить повторную закачку старых серий можно, отжав галочку в соответсвующих местах при запуске нового торрента. По возможности, желательно не удалять старые серии как можно дольше чтобы релизёр не столько продолжал раздавать старые серии, а смог сконцентрироваться на новых.
Релиз от: OmskBird
[freetreker.nl].t491.torrent 
Торрент: Зарегистрирован [ 2018-05-16 02:58 ] · EB3A5754AA5EA60C2BB9473ADC826EC4B6CABDDF

Скачать .torrent

Скачать

26 KB

Статус: проверено
Скачан: 0 раз
Размер: 9,6 GB
terms.php
Похожие темы:


Последний раз редактировалось: Grandfather61 (2018-05-16 02:58), всего редактировалось 7 раз(а)
[Профиль] [ЛС]

Grandfather61 ®

Пол: Мужской

Стаж: 1 год 5 месяцев

Сообщений: 641

Создавать темы 16-Май-2018 03:00 (спустя 2 месяца 3 дня)

[Цитировать]

9 и 10-я серии
[Профиль] [ЛС]
Показать сообщения:    
Ответить на тему

Текущее время: 19-Дек 03:01

Часовой пояс: UTC ± 0



Вы не можете начинать темы
Вы не можете отвечать на сообщения
Вы не можете редактировать свои сообщения
Вы не можете удалять свои сообщения
Вы не можете голосовать в опросах
Вы не можете прикреплять файлы к сообщениям
Вы можете скачивать файлы