Горе-творец / The Disaster Artist (Джеймс Франко / James Franco) [2017, США, Драма, комедия, биография, BDRip 720p] MVO (Train Studio)

Ответить на тему
Статистика раздачи
Размер:  4,7 GB   |    Зарегистрирован:  8 месяцев 25 дней   |    Скачан:  2 раза

Полного источника не было: 1 месяц 30 дней

 
     
 
 
 
Автор Сообщение

Gater ®

Пол: Не указан

Стаж: 1 год 5 месяцев

Сообщений: 1555

Создавать темы 17-Мар-2018 11:35

[Цитировать]

-Горе-творец / The Disaster Artist- Год выпуска • 2017
Страна • США / New Line Cinema
Жанр • драма, комедия, биография
Продолжительность • 01:43:50
Перевод • Профессиональный (многоголосый, закадровый) "Train Studio"
Субтитры • Английские
Оригинальная аудиодорожка • Английская-Режжисёр • Джеймс Франко / James Franco
В ролях • Джеймс Франко, Дэйв Франко, Сет Роген, Эри Грейнор, Элисон Бри, Джеки Уивер, Пол Шир, Зак Эфрон, Джош Хатчерсон, Джун Рафаэль и др.-Описание • История о создании фильма «Комната» (2003), широко известного как эталон бездарного кино. Начинающий актер-красавец Грэг на актерских курсах знакомится с эксцентричным Томми Вайсо. У новых друзей совсем немного общего, кроме любви к актерству и желания самовыражаться, поэтому парочка отправляется покорять Голливуд.-
Ссылки • | Сэмпл | | IMDB | | КиноПоиск |
-Внимание! Присутствует нецензурная лексика!-
Качество: BDRip 720p
Формат: MKV
Видео: MPEG-4 AVC / 5384 kbps / 1280х536p / 23.976 fps / 2.40:1 / 0.327 bit/pixel / High Level 4.1
Аудио:
Русский / Dolby Digital 5.1 / 48 kHz / 448 kbps
English / Dolby Digital 5.1 / 48 kHz / 640 kbps
Субтитры: Eng / SRT-

Скриншоты

MediaInfo


General
Unique ID : 182114732174792396694114865536544282076 (0x89020587A3CB5A41B07740E7BF4015DC)
Complete name : H:\Мои Документы\Видео\РАЗДАЧИ\АРХИВ\Горе-творец\The Disaster Artist 2017 BDRip 720p.mkv
Format : Matroska
Format version : Version 2
File size : 4.70 GiB
Duration : 1 h 43 min
Overall bit rate : 6 473 kb/s
Encoded date : UTC 2018-03-16 13:42:51
Writing application : mkvmerge v4.0.0 ('The Stars were mine') сборка от Jun 6 2010 16:18:42
Writing library : libebml v1.0.0 + libmatroska v1.0.0
Video
ID : 1
Format : AVC
Format/Info : Advanced Video Codec
Format profile : [email protected]
Format settings, CABAC : Yes
Format settings, RefFrames : 5 frames
Codec ID : V_MPEG4/ISO/AVC
Duration : 1 h 43 min
Bit rate : 5 384 kb/s
Width : 1 280 pixels
Height : 536 pixels
Display aspect ratio : 2.40:1
Frame rate mode : Constant
Frame rate : 23.976 (24000/1001) FPS
Color space : YUV
Chroma subsampling : 4:2:0
Bit depth : 8 bits
Scan type : Progressive
Bits/(Pixel*Frame) : 0.327
Stream size : 3.81 GiB (81%)
Writing library : x264 core 155 r2901 7d0ff22
Encoding settings : cabac=1 / ref=5 / deblock=1:-3:-3 / analyse=0x3:0x133 / me=umh / subme=8 / psy=1 / psy_rd=1.00:0.00 / mixed_ref=1 / me_range=16 / chroma_me=1 / trellis=1 / 8x8dct=1 / cqm=0 / deadzone=21,11 / fast_pskip=0 / chroma_qp_offset=-2 / threads=17 / lookahead_threads=2 / sliced_threads=0 / nr=0 / decimate=1 / interlaced=0 / bluray_compat=0 / constrained_intra=0 / bframes=3 / b_pyramid=2 / b_adapt=1 / b_bias=0 / direct=3 / weightb=1 / open_gop=0 / weightp=2 / keyint=250 / keyint_min=23 / scenecut=40 / intra_refresh=0 / rc_lookahead=50 / rc=2pass / mbtree=1 / bitrate=5384 / ratetol=1.0 / qcomp=0.60 / qpmin=0 / qpmax=69 / qpstep=4 / cplxblur=20.0 / qblur=0.5 / vbv_maxrate=62500 / vbv_bufsize=78125 / nal_hrd=none / filler=0 / ip_ratio=1.40 / aq=1:1.00
Default : No
Forced : No
Audio #1
ID : 2
Format : AC-3
Format/Info : Audio Coding 3
Format settings, Endianness : Big
Codec ID : A_AC3
Duration : 1 h 43 min
Bit rate mode : Constant
Bit rate : 448 kb/s
Channel(s) : 6 channels
Channel positions : Front: L C R, Side: L R, LFE
Sampling rate : 48.0 kHz
Frame rate : 31.250 FPS (1536 SPF)
Bit depth : 16 bits
Compression mode : Lossy
Stream size : 333 MiB (7%)
Language : Russian
Service kind : Complete Main
Default : Yes
Forced : No
Audio #2
ID : 3
Format : AC-3
Format/Info : Audio Coding 3
Format settings, Endianness : Big
Codec ID : A_AC3
Duration : 1 h 43 min
Bit rate mode : Constant
Bit rate : 640 kb/s
Channel(s) : 6 channels
Channel positions : Front: L C R, Side: L R, LFE
Sampling rate : 48.0 kHz
Frame rate : 31.250 FPS (1536 SPF)
Bit depth : 16 bits
Compression mode : Lossy
Stream size : 475 MiB (10%)
Language : English
Service kind : Complete Main
Default : No
Forced : No
Text #1
ID : 4
Format : UTF-8
Codec ID : S_TEXT/UTF8
Codec ID/Info : UTF-8 Plain Text
Language : English
Default : No
Forced : No
Text #2
ID : 5
Format : UTF-8
Codec ID : S_TEXT/UTF8
Codec ID/Info : UTF-8 Plain Text
Title : English SDH
Language : English
Default : No
Forced : No
Menu
00:00:00.000 : en:00:00:00.000
00:05:39.673 : en:00:05:39.673
00:13:54.959 : en:00:13:54.959
00:20:18.300 : en:00:20:18.300
00:24:27.841 : en:00:24:27.841
00:30:48.764 : en:00:30:48.764
00:37:05.515 : en:00:37:05.515
00:43:16.719 : en:00:43:16.719
00:49:27.381 : en:00:49:27.381
00:56:49.948 : en:00:56:49.948
01:02:26.117 : en:01:02:26.117
01:08:24.559 : en:01:08:24.559
01:16:57.154 : en:01:16:57.154
01:21:25.797 : en:01:21:25.797
01:28:40.190 : en:01:28:40.190
01:34:53.354 : en:01:34:53.354

Над переводом работали:

Перевод: Дияна Младенович. Роли озвучивали: Маргарита Корш, Светлана Чистохина, Павел Абрамов, Станислав Черсков, Алексей Никитин и Дмитрий Зубарев.
[freetreker.nl].t494.torrent 
Торрент: Зарегистрирован [ 2018-03-17 11:35 ] · 5FDD0E8975BA13203F62C688E8E1B321187FD76D

Скачать .torrent

Скачать

12 KB

Статус: проверено
Скачан: 2 раз
Размер: 4,7 GB
terms.php
Похожие темы:
[Профиль] [ЛС]
Показать сообщения:    
Ответить на тему

Текущее время: 12-Дек 07:10

Часовой пояс: UTC ± 0



Вы не можете начинать темы
Вы не можете отвечать на сообщения
Вы не можете редактировать свои сообщения
Вы не можете удалять свои сообщения
Вы не можете голосовать в опросах
Вы не можете прикреплять файлы к сообщениям
Вы можете скачивать файлы