Вне времени / Timeless / Сезон: 2 / Серии: 1-2 из 16 (Нил Маршалл) [2018, США, Драма, научная фантастика, приключения, WEB-DL 1080p] MVO (OmskBird) + Original

Ответить на тему
Статистика раздачи
Размер:  6,03 GB   |    Зарегистрирован:  1 месяц 6 дней   |    Скачан:  0 раз

Полного источника не было: 1 месяц 6 дней

 
     
 
 
 
Автор Сообщение

Grandfather61 ®

Пол: Мужской

Стаж: 9 месяцев 17 дней

Сообщений: 510

Создавать темы 20-Мар-2018 06:35

[Цитировать]

--Вне времени / Timeless-- Год выпуска: 2018
Страна: США
Жанр: Драма, научная фантастика, приключения
Продолжительность: ~ 00:45:00-Перевод: Любительский (многоголосый закадровый) OmskBird-Режиссёр: Нил Маршалл
В ролях: Эбигейл Спенсер (Люси Престон), Мэтт Лантер (Уайатт Логан), Горан Вишнич (Гарсиа Флинн), Сакина Джэффри (Дениз Кристофер), Пэтерсон Джозеф (Коннор Мэйсон), Малкольм Баррет (Руфус Карлин), Клаудия Дурмит (Джия) и др.-Описание: Сериал «Вне времени» не претендует на научную достоверность, он в форме фантастического повествования показывает исторические моменты в прошлом Соединенных Штатов, также имеет сквозную линию сюжета на которую, как игрушки на ёлку навешиваются очередные серии с новой информацией, в итоге получилось подобие слоёного пирога с разной начинкой на все вкусы. Каждая серия несёт новую историю путешествий, встречи с знаменитыми людьми, фактами или предметами, а значит сюжет развивается и подогревает дальнейший интерес зрителей.
Окончание первого сезона оставило без ответов множество вопросов, как внутрисемейных, так и завязанных только на рабочих моментах. Могущественная организация «Риттенхаус» смогла запустить свои корни в самые перспективные отрасли хозяйствования, семьи и зачастую потомки её организаторов не знали о существовании подобной скрытной «масонской ложи». Тем интереснее будет просмотр второго сезона этого приключенческого сериала.-Доп. информация:
Релиз-группа: - -Ссылка на предыдущие и альтернативные раздачи-Качество: WEB-DL 1080p
Контейнер: MKV
Видео: H.264, 1 920x1080 (16:9), 23.976 fps, ~6376 kbps, 0.128 bit/pixel
Аудио # rus: AC3, 48 kHz, 6 ch, 640 kbps - OMSKBIRD
Аудио # eng: AC3, 48 kHz, 6 ch, 640 kbps
Субтитры: английские
присутствуют аудио вставки рекламы (в начале и в конце по 10 сек.)

MediaInfo

General
Unique ID : 212632593712357186412413552695817263736 (0x9FF78C45AFCEADA680078D368447DA78)
Complete name : G:\Films\Timeless.S02.1080p.WEBRip.OmskBird\Timeless.S02E01.1080p.WEBRip.OmskBird.mkv
Format : Matroska
Format version : Version 4 / Version 2
File size : 2.33 GiB
Duration : 42mn 38s
Overall bit rate mode : Variable
Overall bit rate : 7 811 Kbps
Encoded date : UTC 2018-03-20 04:50:11
Writing application : mkvmerge v21.0.0 ('Tardigrades Will Inherit The Earth') 64-bit
Writing library : libebml v1.3.5 + libmatroska v1.4.8
Cover : Yes
Attachments : small_cover.jpg / small_cover_land.jpg / cover.jpg / cover_land.jpg
Video
ID : 1
Format : AVC
Format/Info : Advanced Video Codec
Format profile : High@L4
Format settings, CABAC : Yes
Format settings, ReFrames : 4 frames
Codec ID : V_MPEG4/ISO/AVC
Duration : 42mn 38s
Bit rate mode : Variable
Bit rate : 6 376 Kbps
Maximum bit rate : 15.0 Mbps
Width : 1 920 pixels
Height : 1 080 pixels
Display aspect ratio : 16:9
Frame rate mode : Constant
Frame rate : 23.976 (24000/1001) fps
Color space : YUV
Chroma subsampling : 4:2:0
Bit depth : 8 bits
Scan type : Progressive
Bits/(Pixel*Frame) : 0.128
Stream size : 1.90 GiB (82%)
Language : English
Default : Yes
Forced : No
Color range : Limited
Color primaries : BT.709
Transfer characteristics : BT.709
Matrix coefficients : BT.709
Audio #1
ID : 2
Format : AC-3
Format/Info : Audio Coding 3
Mode extension : CM (complete main)
Format settings, Endianness : Big
Codec ID : A_AC3
Duration : 42mn 38s
Bit rate mode : Constant
Bit rate : 640 Kbps
Channel(s) : 6 channels
Channel positions : Front: L C R, Side: L R, LFE
Sampling rate : 48.0 KHz
Frame rate : 31.250 fps (1536 spf)
Compression mode : Lossy
Stream size : 195 MiB (8%)
Title : OmskBird
Language : Russian
Default : Yes
Forced : No
Audio #2
ID : 3
Format : AC-3
Format/Info : Audio Coding 3
Mode extension : CM (complete main)
Format settings, Endianness : Big
Codec ID : A_AC3
Duration : 42mn 38s
Bit rate mode : Constant
Bit rate : 640 Kbps
Channel(s) : 6 channels
Channel positions : Front: L C R, Side: L R, LFE
Sampling rate : 48.0 KHz
Frame rate : 31.250 fps (1536 spf)
Compression mode : Lossy
Stream size : 195 MiB (8%)
Title : eng
Language : English
Default : No
Forced : No
Text
ID : 4
Format : UTF-8
Codec ID : S_TEXT/UTF8
Codec ID/Info : UTF-8 Plain Text
Language : English
Default : No
Forced : No

Скриншоты

Внимание! Раздача ведётся путём добавления новых серий.

Внимание! Раздача ведётся путём добавления новых серий; при каждом добавлении создётся новый торрент. Чтобы начать докачку новой серии, пользователям необходимо сделать следующее:
Остановить скачивание.
Удалить старый торрент у себя из клиента (старые серии удалять не надо).
Скачать новый торрент и запустить его у себя в клиенте вместо старого, при этом указать клиенту путь в старую папку куда и должно происходить скачивание новых серий.
Ваш клиент при этом должен произвести хеширование (проверку) старой папки (если не производит сам - помогите ему сделать это), и будет докачивать только те серии которых у вас ещё нет. Старые серии при этом не удаляются, а продолжают раздаваться!
Eсли вы уже удалили старые серии, то предотвратить повторную закачку старых серий можно, отжав галочку в соответсвующих местах при запуске нового торрента. По возможности, желательно не удалять старые серии как можно дольше чтобы релизёр не столько продолжал раздавать старые серии, а смог сконцентрироваться на новых.
[freetreker.nl].t496.torrent 
Торрент: Зарегистрирован [ 2018-03-20 06:35 ] · 1BD0A683A76087FE50E1284F7638693858ECA629

Скачать .torrent

Скачать

16 KB

Статус: * не проверено
Скачан: 0 раз
Размер: 6,03 GB
terms.php
Похожие темы:
[Профиль] [ЛС]
Показать сообщения:    
Ответить на тему

Текущее время: 26-Апр 19:23

Часовой пояс: UTC ± 0



Вы не можете начинать темы
Вы не можете отвечать на сообщения
Вы не можете редактировать свои сообщения
Вы не можете удалять свои сообщения
Вы не можете голосовать в опросах
Вы не можете прикреплять файлы к сообщениям
Вы можете скачивать файлы