Переправа / The Crossing / Сезон 1 / Серии 1-11 (11) (Джей Битти) [2018, США, фантастика, драма, WEB-DLRip] MVO (OMSKBIRD)

Ответить на тему
Статистика раздачи
Размер:  6,51 GB   |    Зарегистрирован:  3 месяца 7 дней   |    Скачан:  0 раз

Полного источника не было: 1 месяц 23 дня

 
     
 
 
 
Автор Сообщение

Gater ®

Пол: Не указан

Стаж: 1 год 2 месяца

Сообщений: 1373

Создавать темы 21-Мар-2018 18:11

[Цитировать]

-Переправа / The Crossing- Год выпуска • 2018
Страна • США
Жанр • фантастика, драма
Продолжительность • ~44 мин.
Перевод
• Профессиональный (многоголосый, закадровый) "OMSKBIRD records"
-Создатель • Джей Битти
В ролях • Стив Зан, Кристиан Майкл Купер, Райан МакДонелл, Сандрин Холт, Рик Гомес, Грант Уитни Харви, Келли Миссал, Симона Кэссел и др.-Описание • Волны выбрасывают на промозглый орегонский пляж тела непонятно откуда взявшихся беженцев. Все они прибыли из будущего, в котором сейчас вовсю разворачивается очередная мировая война. В том, чем грозит нашествие, пытается разобраться местный шериф.-Реклама: Присутствует.-
Качество: WEB-DLRip
Формат: AVI
Видео: Xvid / ~ 1800 kbps / 720х400p / 23.976 fps / 16:9
Аудио:
Русский / Dolby Digital 2.0 / 48 kHz / 192 kbps-
-

Скриншоты

MediaInfo


General
Complete name : H:\Мои Документы\Видео\РАЗДАЧИ\ПЕРЕПРАВА\The Crossing S01 WEB-DLRip (OMSKBIRD)\The Crossing S01E01 WEB-DLRip (OMSKBIRD).avi
Format : AVI
Format/Info : Audio Video Interleave
File size : 614 MiB
Duration : 43 min 21 s
Overall bit rate : 1 979 kb/s
Writing application : VirtualDubMod 1.5.10.3 | www.virtualdub-fr.org || (build 2550/release)
Writing library : VirtualDubMod build 2550/release
Video
ID : 0
Format : MPEG-4 Visual
Format profile : Advanced Simple@L5
Format settings, BVOP : 1
Format settings, QPel : No
Format settings, GMC : No warppoints
Format settings, Matrix : Default (H.263)
Codec ID : XVID
Codec ID/Hint : XviD
Duration : 43 min 21 s
Bit rate : 1 777 kb/s
Width : 720 pixels
Height : 400 pixels
Display aspect ratio : 16:9
Frame rate : 23.976 (24000/1001) FPS
Color space : YUV
Chroma subsampling : 4:2:0
Bit depth : 8 bits
Scan type : Progressive
Compression mode : Lossy
Bits/(Pixel*Frame) : 0.257
Stream size : 551 MiB (90%)
Writing library : XviD 67
Audio
ID : 1
Format : AC-3
Format/Info : Audio Coding 3
Format settings, Endianness : Big
Codec ID : 2000
Duration : 43 min 21 s
Bit rate mode : Constant
Bit rate : 192 kb/s
Channel(s) : 2 channels
Channel positions : Front: L R
Sampling rate : 48.0 kHz
Frame rate : 31.250 FPS (1536 SPF)
Bit depth : 16 bits
Compression mode : Lossy
Stream size : 59.5 MiB (10%)
Alignment : Split accross interleaves
Interleave, duration : 42 ms (1.00 video frame)
Interleave, preload duratio : 500 ms
Service kind : Complete Main
[freetreker.nl].t499.torrent 
Торрент: Зарегистрирован [ 2018-06-11 14:12 ] · CF1F48C1C175B4DD58D06C57044ADDE527589981

Скачать .torrent

Скачать

17 KB

Статус: проверено
Скачан: 0 раз
Размер: 6,51 GB
terms.php
Похожие темы:


Последний раз редактировалось: Gater (2018-06-11 14:12), всего редактировалось 8 раз(а)
[Профиль] [ЛС]

Gater ®

Пол: Не указан

Стаж: 1 год 2 месяца

Сообщений: 1373

Создавать темы 10-Апр-2018 17:39 (спустя 19 дней)

[Цитировать]

Добавлена 2 серия.
[Профиль] [ЛС]

Gater ®

Пол: Не указан

Стаж: 1 год 2 месяца

Сообщений: 1373

Создавать темы 17-Апр-2018 17:58 (спустя 7 дней)

[Цитировать]

Добавлена 3 серия.
[Профиль] [ЛС]

Gater ®

Пол: Не указан

Стаж: 1 год 2 месяца

Сообщений: 1373

Создавать темы 24-Апр-2018 16:42 (спустя 6 дней)

[Цитировать]

Добавлена 4 серия.
[Профиль] [ЛС]

Gater ®

Пол: Не указан

Стаж: 1 год 2 месяца

Сообщений: 1373

Создавать темы 02-Май-2018 11:27 (спустя 7 дней)

[Цитировать]

Добавлена 5 серия.
[Профиль] [ЛС]

Gater ®

Пол: Не указан

Стаж: 1 год 2 месяца

Сообщений: 1373

Создавать темы 08-Май-2018 16:32 (спустя 6 дней)

[Цитировать]

Добавлена 6 серия.
[Профиль] [ЛС]

Gater ®

Пол: Не указан

Стаж: 1 год 2 месяца

Сообщений: 1373

Создавать темы 16-Май-2018 11:15 (спустя 7 дней)

[Цитировать]

Добавлена 7 серия.
[Профиль] [ЛС]

Gater ®

Пол: Не указан

Стаж: 1 год 2 месяца

Сообщений: 1373

Создавать темы 29-Май-2018 21:17 (спустя 13 дней)

[Цитировать]

Добавлена 8 серия.
[Профиль] [ЛС]

Gater ®

Пол: Не указан

Стаж: 1 год 2 месяца

Сообщений: 1373

Создавать темы 06-Июн-2018 10:52 (спустя 7 дней)

[Цитировать]

Добавлена 9 серия.
[Профиль] [ЛС]

Gater ®

Пол: Не указан

Стаж: 1 год 2 месяца

Сообщений: 1373

Создавать темы 11-Июн-2018 14:14 (спустя 5 дней)

[Цитировать]

Добавлена 10-11 серия.
Финал.
[Профиль] [ЛС]
Показать сообщения:    
Ответить на тему

Текущее время: 18-Сен 16:19

Часовой пояс: UTC ± 0



Вы не можете начинать темы
Вы не можете отвечать на сообщения
Вы не можете редактировать свои сообщения
Вы не можете удалять свои сообщения
Вы не можете голосовать в опросах
Вы не можете прикреплять файлы к сообщениям
Вы можете скачивать файлы