Стрелок / Shooter / Сезон: 2 / Серии: 1-8 из 8 (Адам Дэвидсон, Иэн Б. МакДональд) [2017, США, боевик, драма. WEBRip] MVO (OmskBird)

Ответить на тему
Статистика раздачи
Размер:  4,76 GB   |    Зарегистрирован:  1 год   |    Скачан:  0 раз

Полного источника не было: 10 месяцев 27 дней

 
     
 
 
 
Автор Сообщение

Grandfather61 ®

Пол: Мужской

Стаж: 1 год 2 месяца

Сообщений: 582

Создавать темы 26-Июл-2017 09:46

[Цитировать]

-- Стрелок / Shooter -- Год выпуска: 2017
Страна: США
Жанр: боевик, драма
Продолжительность: ~ 00:42:00-Перевод: Профессиональный (многоголосый закадровый) OmskBird-Режиссёр: Саймон Селлан Джоунс
В ролях: Райан Филипп, Синтия Аддай-Робинсон, Омар Эппс, Эдди МакКлинток, Темби Лок, Анжелика Кенни, Лекси Колкер, Шон Майкл, Шантель Ван Сантен, Донзали Абернати и др.-Описание: Главным персонажем является бывший морской пехотинец и снайпер Боб Суэггер. Не по своей воле он оказывается вовлеченным в тайный заговор, главная цель которого заключается в ликвидации американского президента. Догадавшись о том, что его планируют подставить, Боб уходит в бега и готовится к тому, чтобы найти настоящего киллера.-Доп. информация:
Релиз-группа:
Перевод: Татьяна Масаковская
Роли озвучивали: Алексей Гнеушев, Павел Ярощик, Андрей Астров, Маргарита Корш
Звукорежиссер: Павел Квентов
Постер: Ксения Просветова- -Ссылка на предыдущие и альтернативные раздачи-Качество: WEBRip
Контейнер: AVI
Видео: XviD, 720x400 (1.80:1), 23.976 fps, ~1800 kbps, 0.26 bit/pixel
Аудио # rus: AC-3, 2 ch, 48,0 КГц, 192 Кбит/сек - OmskBird
Реклама: присутствуют реклама

Список серий

01. The Hunting Party
02. Remember the Alamo
03. Don't Mess with Texas
04. The Dark End of the Street
05. The Man Called Noon
06. Across the Rio Grande
07. Someplace Like Bolivia
08. That'll Be the Day

MediaInfo

General
Complete name : G:FilmsShooter.s02.400p.WEBRip.OmskBirdShooter.s02E01.WEBRip.OmskBird.avi
Format : AVI
Format/Info : Audio Video Interleave
File size : 607 MiB
Duration : 42mn 23s
Overall bit rate : 2 002 Kbps
Writing application : VirtualDubMod 1.5.10.3 (build 2550/release)
Writing library : VirtualDubMod build 2550/release
Video
ID : 0
Format : MPEG-4 Visual
Format profile : Advanced Simple@L5
Format settings, BVOP : 1
Format settings, QPel : No
Format settings, GMC : No warppoints
Format settings, Matrix : Default (MPEG)
Codec ID : XVID
Codec ID/Hint : XviD
Duration : 42mn 23s
Bit rate : 1 801 Kbps
Width : 720 pixels
Height : 400 pixels
Display aspect ratio : 16:9
Frame rate : 23.976 (23976/1000) fps
Color space : YUV
Chroma subsampling : 4:2:0
Bit depth : 8 bits
Scan type : Progressive
Compression mode : Lossy
Bits/(Pixel*Frame) : 0.261
Stream size : 546 MiB (90%)
Writing library : XviD 73
Audio
ID : 1
Format : AC-3
Format/Info : Audio Coding 3
Mode extension : CM (complete main)
Format settings, Endianness : Big
Codec ID : 2000
Duration : 42mn 23s
Bit rate mode : Constant
Bit rate : 192 Kbps
Channel(s) : 2 channels
Channel positions : Front: L R
Sampling rate : 48.0 KHz
Frame rate : 31.250 fps (1536 spf)
Compression mode : Lossy
Stream size : 58.2 MiB (10%)
Alignment : Split accross interleaves
Interleave, duration : 42 ms (1.00 video frame)
Interleave, preload duration : 500 ms

Скриншоты

Внимание! Раздача ведётся путём добавления новых серий.

Внимание! Раздача ведётся путём добавления новых серий; при каждом добавлении создётся новый торрент. Чтобы начать докачку новой серии, пользователям необходимо сделать следующее:
Остановить скачивание.
Удалить старый торрент у себя из клиента (старые серии удалять не надо).
Скачать новый торрент и запустить его у себя в клиенте вместо старого, при этом указать клиенту путь в старую папку куда и должно происходить скачивание новых серий.
Ваш клиент при этом должен произвести хеширование (проверку) старой папки (если не производит сам - помогите ему сделать это), и будет докачивать только те серии которых у вас ещё нет. Старые серии при этом не удаляются, а продолжают раздаваться!
Eсли вы уже удалили старые серии, то предотвратить повторную закачку старых серий можно, отжав галочку в соответсвующих местах при запуске нового торрента. По возможности, желательно не удалять старые серии как можно дольше чтобы релизёр не столько продолжал раздавать старые серии, а смог сконцентрироваться на новых.
[freetreker.nl].t50.torrent 
 ЗОЛОТАЯ РАЗДАЧА! СКАЧАННОЕ НЕ ЗАСЧИТЫВАЕТСЯ! 
Торрент: Зарегистрирован [ 2017-09-07 14:14 ] · 93E44CF4178D07475C14A584B8D1D0BD1AB88F71

Скачать .torrent

Скачать

13 KB

Статус: проверено
Скачан: 0 раз
Размер: 4,76 GB
terms.php
Похожие темы:


Последний раз редактировалось: Grandfather61 (2017-09-07 14:14), всего редактировалось 5 раз(а)
[Профиль] [ЛС]

Grandfather61 ®

Пол: Мужской

Стаж: 1 год 2 месяца

Сообщений: 582

Создавать темы 03-Авг-2017 08:24 (спустя 7 дней)

[Цитировать]

Добавлена 3-я серия! Приятного просмотра!
[Профиль] [ЛС]

Grandfather61 ®

Пол: Мужской

Стаж: 1 год 2 месяца

Сообщений: 582

Создавать темы 10-Авг-2017 05:09 (спустя 6 дней)

[Цитировать]

Добавлена 4-я серия! Приятного просмотра!
[Профиль] [ЛС]

Grandfather61 ®

Пол: Мужской

Стаж: 1 год 2 месяца

Сообщений: 582

Создавать темы 18-Авг-2017 04:53 (спустя 7 дней)

[Цитировать]

Добавлена 5-я серия! Приятного просмотра!
[Профиль] [ЛС]

Grandfather61 ®

Пол: Мужской

Стаж: 1 год 2 месяца

Сообщений: 582

Создавать темы 24-Авг-2017 14:05 (спустя 6 дней)

[Цитировать]

Добавлена 6-я серия! Приятного просмотра!
[Профиль] [ЛС]

Grandfather61 ®

Пол: Мужской

Стаж: 1 год 2 месяца

Сообщений: 582

Создавать темы 31-Авг-2017 10:20 (спустя 6 дней)

[Цитировать]

Добавлена 7-я серия! Приятного просмотра!
[Профиль] [ЛС]

Grandfather61 ®

Пол: Мужской

Стаж: 1 год 2 месяца

Сообщений: 582

Создавать темы 07-Сен-2017 14:15 (спустя 7 дней)

[Цитировать]

Добавлена 8-я серия! Приятного просмотра!
[Профиль] [ЛС]
Показать сообщения:    
Ответить на тему

Текущее время: 18-Сен 15:50

Часовой пояс: UTC ± 0



Вы не можете начинать темы
Вы не можете отвечать на сообщения
Вы не можете редактировать свои сообщения
Вы не можете удалять свои сообщения
Вы не можете голосовать в опросах
Вы не можете прикреплять файлы к сообщениям
Вы можете скачивать файлы