Криптон / Krypton [01х01-05 из 10] (2018) WEBRip | OmskBird

Ответить на тему
Статистика раздачи
Размер:  3,02 GB   |    Зарегистрирован:  6 дней   |    Скачан:  0 раз
Сидов:  1  [  0 KB/s  ]   Подробная статистика пиров
 
     
 
 
 
Автор Сообщение

Grandfather61 ®

Пол: Мужской

Стаж: 9 месяцев 17 дней

Сообщений: 510

Создавать темы 23-Мар-2018 05:55

[Цитировать]


Информация о фильме
Название: Криптон
Оригинальное название: Krypton
Год выхода: 2018
Жанр: фантастика, боевик, драма, приключения
Режиссер: Киаран Доннелли
В ролях: Камерон Каффе, Джорджина Кэмпбелл, Йен МакЭлхинни, Эллиот Кауэн, Энн Огбомо, Расмус Хардайкер, Уоллис Дэй, Аарон Пьер, Гордон Александр и другие.
О фильме:
В центре фантастического сериала — события, происходившие на родной планете мальчика с необычными способностями, который стал Суперменом. Действие разворачивается за несколько десятилетий до гибели планеты. Дед Супермена, всю жизнь веривший в равенство всех жителей планеты Криптон, решает вести непримиримую борьбу с беспорядками и очистить славное имя Элов…

Страна: США, DC Entertainment, Phantom Four
Продолжительность: ~ 00:44:00 серия
Перевод: Любительский (многоголосый закадровый) OmskBird
Файл
Кодек: XviD
Качество: WEBRip
Видео: 720x400, 23.976 fps, ~1794 kbps, 0.26 bit/pixel
Звук:
Аудио rus: AC3, 48 kHz, 2 ch, 192 Kbps | OmskBird
Субтитры: отсутствуют
Реклама: присутствует
Семпл
Ссылка на предыдущие и альтернативные раздачи

MediaInfo

General
Complete name : G:FilmsKrypton.S01.WEBRip.OmskBirdKrypton.S01E01.WEBRip.OmskBird.avi
Format : AVI
Format/Info : Audio Video Interleave
File size : 624 MiB
Duration : 43mn 43s
Overall bit rate : 1 996 Kbps
Writing application : VirtualDubMod 1.5.10.3 | www.virtualdub-fr.org || (build 2550/release)
Writing library : VirtualDubMod build 2550/release
Video
ID : 0
Format : MPEG-4 Visual
Format profile : Advanced Simple@L5
Format settings, BVOP : 1
Format settings, QPel : No
Format settings, GMC : No warppoints
Format settings, Matrix : Default (MPEG)
Codec ID : XVID
Codec ID/Hint : XviD
Duration : 43mn 43s
Bit rate : 1 795 Kbps
Width : 720 pixels
Height : 400 pixels
Display aspect ratio : 16:9
Frame rate : 23.976 (23976/1000) fps
Color space : YUV
Chroma subsampling : 4:2:0
Bit depth : 8 bits
Scan type : Progressive
Compression mode : Lossy
Bits/(Pixel*Frame) : 0.260
Stream size : 561 MiB (90%)
Writing library : XviD 73
Audio
ID : 1
Format : AC-3
Format/Info : Audio Coding 3
Mode extension : CM (complete main)
Format settings, Endianness : Big
Codec ID : 2000
Duration : 43mn 43s
Bit rate mode : Constant
Bit rate : 192 Kbps
Channel(s) : 2 channels
Channel positions : Front: L R
Sampling rate : 48.0 KHz
Frame rate : 31.250 fps (1536 spf)
Compression mode : Lossy
Stream size : 60.0 MiB (10%)
Alignment : Split accross interleaves
Interleave, duration : 42 ms (1.00 video frame)
Interleave, preload duration : 500 ms

Скриншоты

Внимание! Раздача ведётся путём добавления новых серий.

Внимание! Раздача ведётся путём добавления новых серий; при каждом добавлении создётся новый торрент. Чтобы начать докачку новой серии, пользователям необходимо сделать следующее:
Остановить скачивание.
Удалить старый торрент у себя из клиента (старые серии удалять не надо).
Скачать новый торрент и запустить его у себя в клиенте вместо старого, при этом указать клиенту путь в старую папку куда и должно происходить скачивание новых серий.
Ваш клиент при этом должен произвести хеширование (проверку) старой папки (если не производит сам - помогите ему сделать это), и будет докачивать только те серии которых у вас ещё нет. Старые серии при этом не удаляются, а продолжают раздаваться!
Eсли вы уже удалили старые серии, то предотвратить повторную закачку старых серий можно, отжав галочку в соответсвующих местах при запуске нового торрента. По возможности, желательно не удалять старые серии как можно дольше чтобы релизёр не столько продолжал раздавать старые серии, а смог сконцентрироваться на новых.
Релиз от: OmskBird
[freetreker.nl].t502.torrent 
Торрент: Зарегистрирован [ 2018-04-20 05:37 ] · 278DA5C1218C1A195EA5C6FE82707C8CFCED59C6

Скачать .torrent

Скачать

17 KB

Статус: проверено
Скачан: 0 раз
Размер: 3,02 GB
terms.php
Похожие темы:


Последний раз редактировалось: Grandfather61 (2018-04-20 05:37), всего редактировалось 3 раз(а)
[Профиль] [ЛС]

Grandfather61 ®

Пол: Мужской

Стаж: 9 месяцев 17 дней

Сообщений: 510

Создавать темы 20-Апр-2018 05:37 (спустя 27 дней)

[Цитировать]

5-я серия
[Профиль] [ЛС]
Показать сообщения:    
Ответить на тему

Текущее время: 26-Апр 19:14

Часовой пояс: UTC ± 0



Вы не можете начинать темы
Вы не можете отвечать на сообщения
Вы не можете редактировать свои сообщения
Вы не можете удалять свои сообщения
Вы не можете голосовать в опросах
Вы не можете прикреплять файлы к сообщениям
Вы можете скачивать файлы