Террор / The Terror [S01] (2018) WEBRip 720p | OmskBird

Ответить на тему
Статистика раздачи
Размер:  10,59 GB   |    Зарегистрирован:  5 месяцев 2 дня   |    Скачан:  2 раза

Полного источника не было: 8 часов

 
     
 
 
 
Автор Сообщение

Grandfather61 ®

Пол: Мужской

Стаж: 1 год 2 месяца

Сообщений: 582

Создавать темы 27-Мар-2018 11:09

[Цитировать]


Информация о фильме
Название: Террор
Оригинальное название: The Terror
Год выхода: 2018
Жанр: фантастика, триллер, драма
Режиссер: Тим Милантс, Эдвард Бергер
В ролях: Джаред Харрис, Киран Хайндс, Тобайас Мензис, Крис Корригэн, Иэн Харт, Кристос Лоутон, Мэттью МакНалти, Адам Нагаитис, Нив Нилсен, Пол Рэди и другие.
О фильме:
В 1845 году экспедиция под командованием опытного полярного исследователя сэра Джона Франклина отправляется на судах «Террор» и «Эребус» к северному побережью Канады на поиск Северо-Западного прохода из Атлантического океана в Тихий — и бесследно исчезает. Поиски ее затянулись на несколько десятилетий, сведения о ее судьбе собирались буквально по крупицам, и до сих пор картина происшедшего пестрит белыми пятнами… Дэн Симмонс, знаменитый автор «Гипериона» и «Эндимиона», «Илиона» и «Олимпа», «Песни Кали» и «Темной игры смерти», предлагает свою версию событий: главную угрозу для экспедиции составляли не сокрушительные объятия льда, не стужа с вьюгой и не испорченные консервы — а неведомое исполинское чудовище, будто сотканное из снега и полярного мрака.

Страна: США, EMJAG Productions, Entertainment 360, Scott Free Productions
Продолжительность: ~ 00:47:00 серия
Перевод: Любительский (многоголосый закадровый) OmskBird
Файл
Кодек: MPEG-4 AVC/х.264
Качество: WEBRip 720p
Видео: 1280x720 (16:9), 23.976 fps, ~2900 kbps, 0.131 bit/pixel
Звук:
Аудио rus: AC3, 48 kHz, 2 ch, 192 Kbps | OmskBird
Субтитры: отсутствуют
Реклама: присутствует
Семпл
Ссылка на предыдущие и альтернативные раздачи

MediaInfo

General
Unique ID : 217571272600799571293737837698005252828 (0xA3AEB3F0DCFF27F4AEFFDC9B86D2BADC)
Complete name : G:\Films\The.Terror.S01.720p.WEBRip.OmskBird\The.Terror.S01E01.720p.WEBRip.OmskBird.mkv
Format : Matroska
Format version : Version 4 / Version 2
File size : 1.05 GiB
Duration : 47mn 36s
Overall bit rate : 3 146 Kbps
Encoded date : UTC 2018-03-27 10:15:00
Writing application : mkvmerge v21.0.0 ('Tardigrades Will Inherit The Earth') 64-bit
Writing library : libebml v1.3.5 + libmatroska v1.4.8
Cover : Yes
Attachments : small_cover.jpg / small_cover_land.jpg / cover.jpg / cover_land.jpg
Video
ID : 1
Format : AVC
Format/Info : Advanced Video Codec
Format profile : Main@L3.2
Format settings, CABAC : Yes
Format settings, ReFrames : 3 frames
Codec ID : V_MPEG4/ISO/AVC
Duration : 47mn 36s
Bit rate : 2 891 Kbps
Width : 1 280 pixels
Height : 720 pixels
Display aspect ratio : 16:9
Frame rate mode : Constant
Frame rate : 23.976 (24000/1001) fps
Standard : PAL
Color space : YUV
Chroma subsampling : 4:2:0
Bit depth : 8 bits
Scan type : Progressive
Bits/(Pixel*Frame) : 0.131
Stream size : 984 MiB (92%)
Language : English
Default : Yes
Forced : No
Color range : Limited
Color primaries : BT.709
Transfer characteristics : BT.709
Matrix coefficients : BT.709
Audio
ID : 2
Format : AC-3
Format/Info : Audio Coding 3
Mode extension : CM (complete main)
Format settings, Endianness : Big
Codec ID : A_AC3
Duration : 47mn 36s
Bit rate mode : Constant
Bit rate : 192 Kbps
Channel(s) : 2 channels
Channel positions : Front: L R
Sampling rate : 48.0 KHz
Frame rate : 31.250 fps (1536 spf)
Compression mode : Lossy
Stream size : 65.4 MiB (6%)
Title : OmskBird
Language : Russian
Default : Yes
Forced : No

Скриншоты

Внимание! Раздача ведётся путём добавления новых серий.

Внимание! Раздача ведётся путём добавления новых серий; при каждом добавлении создётся новый торрент. Чтобы начать докачку новой серии, пользователям необходимо сделать следующее:
Остановить скачивание.
Удалить старый торрент у себя из клиента (старые серии удалять не надо).
Скачать новый торрент и запустить его у себя в клиенте вместо старого, при этом указать клиенту путь в старую папку куда и должно происходить скачивание новых серий.
Ваш клиент при этом должен произвести хеширование (проверку) старой папки (если не производит сам - помогите ему сделать это), и будет докачивать только те серии которых у вас ещё нет. Старые серии при этом не удаляются, а продолжают раздаваться!
Eсли вы уже удалили старые серии, то предотвратить повторную закачку старых серий можно, отжав галочку в соответсвующих местах при запуске нового торрента. По возможности, желательно не удалять старые серии как можно дольше чтобы релизёр не столько продолжал раздавать старые серии, а смог сконцентрироваться на новых.
Релиз от: OmskBird
[freetreker.nl].t503.torrent 
Торрент: Зарегистрирован [ 2018-04-16 16:14 ] · 572272B1051A3B0B0F98265AF8815AFF552F29DB

Скачать .torrent

Скачать

28 KB

Статус: проверено
Скачан: 2 раз
Размер: 10,59 GB
terms.php
Похожие темы:


Последний раз редактировалось: Grandfather61 (2018-04-16 16:14), всего редактировалось 7 раз(а)
[Профиль] [ЛС]

Grandfather61 ®

Пол: Мужской

Стаж: 1 год 2 месяца

Сообщений: 582

Создавать темы 16-Апр-2018 16:14 (спустя 20 дней)

[Цитировать]

Добавлена 10-я серия
[Профиль] [ЛС]
Показать сообщения:    
Ответить на тему

Текущее время: 19-Сен 14:26

Часовой пояс: UTC ± 0



Вы не можете начинать темы
Вы не можете отвечать на сообщения
Вы не можете редактировать свои сообщения
Вы не можете удалять свои сообщения
Вы не можете голосовать в опросах
Вы не можете прикреплять файлы к сообщениям
Вы можете скачивать файлы