Террор / The Terror [S01] (2018) WEBRip | OmskBird

Ответить на тему
Статистика раздачи
Размер:  6,66 GB   |    Зарегистрирован:  7 месяцев 27 дней   |    Скачан:  0 раз

Полного источника не было: 5 месяцев 23 дня

 
     
 
 
 
Автор Сообщение

Grandfather61 ®

Пол: Мужской

Стаж: 1 год 5 месяцев

Сообщений: 641

Создавать темы 27-Мар-2018 11:32

[Цитировать]


Информация о фильме
Название: Террор
Оригинальное название: The Terror
Год выхода: 2018
Жанр: фантастика, триллер, драма
Режиссер: Тим Милантс, Эдвард Бергер
В ролях: Джаред Харрис, Киран Хайндс, Тобайас Мензис, Крис Корригэн, Иэн Харт, Кристос Лоутон, Мэттью МакНалти, Адам Нагаитис, Нив Нилсен, Пол Рэди и другие.
О фильме:
В 1845 году экспедиция под командованием опытного полярного исследователя сэра Джона Франклина отправляется на судах «Террор» и «Эребус» к северному побережью Канады на поиск Северо-Западного прохода из Атлантического океана в Тихий — и бесследно исчезает. Поиски ее затянулись на несколько десятилетий, сведения о ее судьбе собирались буквально по крупицам, и до сих пор картина происшедшего пестрит белыми пятнами… Дэн Симмонс, знаменитый автор «Гипериона» и «Эндимиона», «Илиона» и «Олимпа», «Песни Кали» и «Темной игры смерти», предлагает свою версию событий: главную угрозу для экспедиции составляли не сокрушительные объятия льда, не стужа с вьюгой и не испорченные консервы — а неведомое исполинское чудовище, будто сотканное из снега и полярного мрака.

Страна: США, EMJAG Productions, Entertainment 360, Scott Free Productions
Продолжительность: ~ 00:47:00 серия
Перевод: Любительский (многоголосый закадровый) OmskBird
Файл
Кодек: XviD
Качество: WEBRip
Видео: 720x400, 23.976 fps, ~1800 kbps, 0.26 bit/pixel
Звук:
Аудио rus: AC3, 48 kHz, 2 ch, 192 Kbps | OmskBird
Субтитры: отсутствуют
Реклама: присутствует
Семпл
Ссылка на предыдущие и альтернативные раздачи

MediaInfo

General
Complete name : G:\Films\The.Terror.S01.WEBRip.OmskBird\The.Terror.S01E01.WEBRip.OmskBird.avi
Format : AVI
Format/Info : Audio Video Interleave
File size : 682 MiB
Duration : 47mn 36s
Overall bit rate : 2 002 Kbps
Writing application : VirtualDubMod 1.5.10.3 | www.virtualdub-fr.org || (build 2550/release)
Writing library : VirtualDubMod build 2550/release
Video
ID : 0
Format : MPEG-4 Visual
Format profile : Advanced [email protected]
Format settings, BVOP : 1
Format settings, QPel : No
Format settings, GMC : No warppoints
Format settings, Matrix : Default (MPEG)
Codec ID : XVID
Codec ID/Hint : XviD
Duration : 47mn 36s
Bit rate : 1 801 Kbps
Width : 720 pixels
Height : 400 pixels
Display aspect ratio : 16:9
Frame rate : 23.976 (23976/1000) fps
Color space : YUV
Chroma subsampling : 4:2:0
Bit depth : 8 bits
Scan type : Progressive
Compression mode : Lossy
Bits/(Pixel*Frame) : 0.261
Stream size : 613 MiB (90%)
Writing library : XviD 73
Audio
ID : 1
Format : AC-3
Format/Info : Audio Coding 3
Mode extension : CM (complete main)
Format settings, Endianness : Big
Codec ID : 2000
Duration : 47mn 36s
Bit rate mode : Constant
Bit rate : 192 Kbps
Channel(s) : 2 channels
Channel positions : Front: L R
Sampling rate : 48.0 KHz
Frame rate : 31.250 fps (1536 spf)
Compression mode : Lossy
Stream size : 65.4 MiB (10%)
Alignment : Split accross interleaves
Interleave, duration : 42 ms (1.00 video frame)
Interleave, preload duration : 500 ms

Скриншоты

Внимание! Раздача ведётся путём добавления новых серий.

Внимание! Раздача ведётся путём добавления новых серий; при каждом добавлении создётся новый торрент. Чтобы начать докачку новой серии, пользователям необходимо сделать следующее:
Остановить скачивание.
Удалить старый торрент у себя из клиента (старые серии удалять не надо).
Скачать новый торрент и запустить его у себя в клиенте вместо старого, при этом указать клиенту путь в старую папку куда и должно происходить скачивание новых серий.
Ваш клиент при этом должен произвести хеширование (проверку) старой папки (если не производит сам - помогите ему сделать это), и будет докачивать только те серии которых у вас ещё нет. Старые серии при этом не удаляются, а продолжают раздаваться!
Eсли вы уже удалили старые серии, то предотвратить повторную закачку старых серий можно, отжав галочку в соответсвующих местах при запуске нового торрента. По возможности, желательно не удалять старые серии как можно дольше чтобы релизёр не столько продолжал раздавать старые серии, а смог сконцентрироваться на новых.
Релиз от: OmskBird
[freetreker.nl].t504.torrent 
Торрент: Зарегистрирован [ 2018-04-16 16:22 ] · 5F5B056C9FA89D9B589B5911B758D78101121CA4

Скачать .torrent

Скачать

19 KB

Статус: проверено
Скачан: 0 раз
Размер: 6,66 GB
terms.php
Похожие темы:


Последний раз редактировалось: Grandfather61 (2018-04-16 16:22), всего редактировалось 7 раз(а)
[Профиль] [ЛС]

Grandfather61 ®

Пол: Мужской

Стаж: 1 год 5 месяцев

Сообщений: 641

Создавать темы 16-Апр-2018 16:23 (спустя 20 дней)

[Цитировать]

Добавлена 10-я серия
[Профиль] [ЛС]
Показать сообщения:    
Ответить на тему

Текущее время: 13-Дек 22:46

Часовой пояс: UTC ± 0



Вы не можете начинать темы
Вы не можете отвечать на сообщения
Вы не можете редактировать свои сообщения
Вы не можете удалять свои сообщения
Вы не можете голосовать в опросах
Вы не можете прикреплять файлы к сообщениям
Вы можете скачивать файлы