Барри / Barry [01x01-08 из 08] (2018) WEBRip 720p | OmskBird

Ответить на тему
Статистика раздачи
Размер:  5,37 GB   |    Зарегистрирован:  7 месяцев 3 дня   |    Скачан:  0 раз

Полного источника не было: 5 месяцев 28 дней

 
     
 
 
 
Автор Сообщение

Grandfather61 ®

Пол: Мужской

Стаж: 1 год 5 месяцев

Сообщений: 641

Создавать темы 27-Мар-2018 17:28

[Цитировать]


Информация о фильме
Название: Барри
Оригинальное название: Barry
Год выхода: 2018
Жанр: Комедия
Режиссер: Билл Хэйдер, Алек Берг, Мэгги Кэри
В ролях: Билл Хэйдер, Генри Уинклер, Стивен Рут, Сара Голдберг, Гленн Флешлер, Энтони Кэрриган, Даррел Бритт-Гибсон, Энди Кэри, Алехандро Ферт, Паула Ньюсом, Джон Пирруччелло, Маркус Браун, Марк Иванир, Дэйл Павински, Камерон Бриттон, Карен Дэвид, Майкл Ирби и другие.
О фильме:
Барри — бывший морпех со Среднего Запада, а ныне никудышный киллер. Одинокий и неприкаянный, однажды он отправляется на заказ в Лос-Анджелес, где по воле случая оказывается на курсах актерского мастерства. Вдохновившись творческой атмосферой, Барри немедля решает стать актером и перезапустить свою жизнь.

Страна: США, Home Box Office (HBO)
Продолжительность: ~ 00:30:00 серия
Перевод: Любительский (многоголосый закадровый) OmskBird
Файл
Кодек: MPEG-4 AVC/х.264
Качество: WEBRip 720p
Видео: 1280x720, 23.976 fps, ~2825 kbps, 0.128 bit/pixel
Звук:
Аудио rus: AC3, 48 kHz, 2 ch, 192 Kbps | OmskBird
Субтитры: отсутствуют
Реклама: присутствует
Семпл
Ссылка на предыдущие и альтернативные раздачи

MediaInfo

General
Unique ID : 101822325967610320449576930425713512825 (0x4C9A4443C095F612F6B625B27528D179)
Complete name : G:FilmsBarry.S01.720p.WEBRip.OmskBirdBarry.S01E01.720p.WEBRip.OmskBird.mkv
Format : Matroska
Format version : Version 4 / Version 2
File size : 682 MiB
Duration : 30mn 58s
Overall bit rate : 3 078 Kbps
Encoded date : UTC 2018-03-27 16:02:25
Writing application : mkvmerge v21.0.0 ('Tardigrades Will Inherit The Earth') 64-bit
Writing library : libebml v1.3.5 + libmatroska v1.4.8
Cover : Yes
Attachments : small_cover.jpg / small_cover_land.jpg / cover.jpg / cover_land.jpg
Video
ID : 1
Format : AVC
Format/Info : Advanced Video Codec
Format profile : [email protected]
Format settings, CABAC : Yes
Format settings, ReFrames : 3 frames
Codec ID : V_MPEG4/ISO/AVC
Duration : 30mn 58s
Bit rate : 2 825 Kbps
Width : 1 280 pixels
Height : 720 pixels
Display aspect ratio : 16:9
Frame rate mode : Constant
Frame rate : 23.976 (24000/1001) fps
Standard : PAL
Color space : YUV
Chroma subsampling : 4:2:0
Bit depth : 8 bits
Scan type : Progressive
Bits/(Pixel*Frame) : 0.128
Stream size : 626 MiB (92%)
Language : English
Default : Yes
Forced : No
Color range : Limited
Color primaries : BT.709
Transfer characteristics : BT.709
Matrix coefficients : BT.709
Audio
ID : 2
Format : AC-3
Format/Info : Audio Coding 3
Mode extension : CM (complete main)
Format settings, Endianness : Big
Codec ID : A_AC3
Duration : 30mn 58s
Bit rate mode : Constant
Bit rate : 192 Kbps
Channel(s) : 2 channels
Channel positions : Front: L R
Sampling rate : 48.0 KHz
Frame rate : 31.250 fps (1536 spf)
Compression mode : Lossy
Stream size : 42.5 MiB (6%)
Title : OmskBird
Language : Russian
Default : Yes
Forced : No

скриншоты

Внимание! Раздача ведётся путём добавления новых серий.

Внимание! Раздача ведётся путём добавления новых серий; при каждом добавлении создётся новый торрент. Чтобы начать докачку новой серии, пользователям необходимо сделать следующее:
Остановить скачивание.
Удалить старый торрент у себя из клиента (старые серии удалять не надо).
Скачать новый торрент и запустить его у себя в клиенте вместо старого, при этом указать клиенту путь в старую папку куда и должно происходить скачивание новых серий.
Ваш клиент при этом должен произвести хеширование (проверку) старой папки (если не производит сам - помогите ему сделать это), и будет докачивать только те серии которых у вас ещё нет. Старые серии при этом не удаляются, а продолжают раздаваться!
Eсли вы уже удалили старые серии, то предотвратить повторную закачку старых серий можно, отжав галочку в соответсвующих местах при запуске нового торрента. По возможности, желательно не удалять старые серии как можно дольше чтобы релизёр не столько продолжал раздавать старые серии, а смог сконцентрироваться на новых.
Релиз от: OmskBird
[freetreker.nl].t506.torrent 
Торрент: Зарегистрирован [ 2018-05-15 05:57 ] · 47814DA209535D60F200462FCF81642FC66FBD7C

Скачать .torrent

Скачать

15 KB

Статус: проверено
Скачан: 0 раз
Размер: 5,37 GB
terms.php
Похожие темы:


Последний раз редактировалось: Grandfather61 (2018-05-15 05:57), всего редактировалось 6 раз(а)
[Профиль] [ЛС]

Grandfather61 ®

Пол: Мужской

Стаж: 1 год 5 месяцев

Сообщений: 641

Создавать темы 15-Май-2018 05:58 (спустя 1 месяц 18 дней)

[Цитировать]

Добавлена 8-я серия
[Профиль] [ЛС]
Показать сообщения:    
Ответить на тему

Текущее время: 19-Дек 03:06

Часовой пояс: UTC ± 0



Вы не можете начинать темы
Вы не можете отвечать на сообщения
Вы не можете редактировать свои сообщения
Вы не можете удалять свои сообщения
Вы не можете голосовать в опросах
Вы не можете прикреплять файлы к сообщениям
Вы можете скачивать файлы