Барри / Barry / Сезон: 1 / Серии: 1-8 из 8 (Билл Хэйдер, Алек Берг, Мэгги Кэри) [2018, США, комедия, WEBRip 1080p] MVO (OmskBird)

Ответить на тему
Статистика раздачи
Размер:  14,77 GB   |    Зарегистрирован:  6 месяцев 29 дней   |    Скачан:  0 раз

Полного источника не было: 5 месяцев 23 дня

 
     
 
 
 
Автор Сообщение

Grandfather61 ®

Пол: Мужской

Стаж: 1 год 5 месяцев

Сообщений: 641

Создавать темы 27-Мар-2018 17:47

[Цитировать]

- Барри / Barry -- Год выпуска: 2018
Страна: США
Жанр: Комедия
Продолжительность: ~00:47:00
Перевод: Любительский (многоголосый закадровый) OmskBird-Режиссёр: Билл Хэйдер, Алек Берг, Мэгги Кэри
В ролях: Билл Хэйдер, Генри Уинклер, Стивен Рут, Сара Голдберг, Гленн Флешлер, Энтони Кэрриган, Даррел Бритт-Гибсон, Энди Кэри, Алехандро Ферт, Паула Ньюсом, Джон Пирруччелло, Маркус Браун, Марк Иванир, Дэйл Павински, Камерон Бриттон, Карен Дэвид, Майкл Ирби и другие.-Описание: Барри — бывший морпех со Среднего Запада, а ныне никудышный киллер. Одинокий и неприкаянный, однажды он отправляется на заказ в Лос-Анджелес, где по воле случая оказывается на курсах актерского мастерства. Вдохновившись творческой атмосферой, Барри немедля решает стать актером и перезапустить свою жизнь.-Доп. информация:
Релиз-группа:
-Ссылка на предыдущие и альтернативные раздачи-Качество: WEB-DL 1080p
Формат: MKV
Видео: AVC/H.264, 1920x1080 (16:9), ~6393 Kbps, 23.976 fps
Аудио # Rus: AC3, 48 kHz, 6 ch, 384 kbps
Аудио # Eng: AC3, 48 kHz, 6 ch, 384 kbps
Субтитры: Английские
Реклама: присутствуют аудио вставки рекламы (в начале и в конце по 10 сек.)

MediaInfo

General
Unique ID                                : 106234616119630741801220665797873032676 (0x4FEC0AF701CBE7AB803118C3F350DDE4)
Complete name                            : G:\Films\Barry.S01.1080p.WEB-DL.OmskBird\Barry.S01E01.1080p.WEB-DL.OmskBird.mkv
Format                                   : Matroska
Format version                           : Version 4 / Version 2
File size                                : 1.58 GiB
Duration                                 : 30mn 58s
Overall bit rate mode                    : Variable
Overall bit rate                         : 7 306 Kbps
Encoded date                             : UTC 2018-03-27 16:53:09
Writing application                      : mkvmerge v21.0.0 ('Tardigrades Will Inherit The Earth') 64-bit
Writing library                          : libebml v1.3.5 + libmatroska v1.4.8
Cover                                    : Yes
Attachments                              : small_cover.jpg / small_cover_land.jpg / cover.jpg / cover_land.jpg
Video
ID                                       : 1
Format                                   : AVC
Format/Info                              : Advanced Video Codec
Format profile                           : [email protected]
Format settings, CABAC                   : Yes
Format settings, ReFrames                : 4 frames
Codec ID                                 : V_MPEG4/ISO/AVC
Duration                                 : 30mn 58s
Bit rate mode                            : Variable
Bit rate                                 : 6 393 Kbps
Maximum bit rate                         : 15.0 Mbps
Width                                    : 1 920 pixels
Height                                   : 1 080 pixels
Display aspect ratio                     : 16:9
Frame rate mode                          : Constant
Frame rate                               : 23.976 (24000/1001) fps
Color space                              : YUV
Chroma subsampling                       : 4:2:0
Bit depth                                : 8 bits
Scan type                                : Progressive
Bits/(Pixel*Frame)                       : 0.129
Stream size                              : 1.38 GiB (87%)
Language                                 : English
Default                                  : Yes
Forced                                   : No
Color range                              : Limited
Color primaries                          : BT.709
Transfer characteristics                 : BT.709
Matrix coefficients                      : BT.709
Audio #1
ID                                       : 2
Format                                   : AC-3
Format/Info                              : Audio Coding 3
Mode extension                           : CM (complete main)
Format settings, Endianness              : Big
Codec ID                                 : A_AC3
Duration                                 : 30mn 58s
Bit rate mode                            : Constant
Bit rate                                 : 384 Kbps
Channel(s)                               : 6 channels
Channel positions                        : Front: L C R, Side: L R, LFE
Sampling rate                            : 48.0 KHz
Frame rate                               : 31.250 fps (1536 spf)
Compression mode                         : Lossy
Stream size                              : 85.1 MiB (5%)
Title                                    : OmskBird
Language                                 : Russian
Default                                  : No
Forced                                   : No
Audio #2
ID                                       : 3
Format                                   : AC-3
Format/Info                              : Audio Coding 3
Mode extension                           : CM (complete main)
Format settings, Endianness              : Big
Codec ID                                 : A_AC3
Duration                                 : 30mn 58s
Bit rate mode                            : Constant
Bit rate                                 : 384 Kbps
Channel(s)                               : 6 channels
Channel positions                        : Front: L C R, Side: L R, LFE
Sampling rate                            : 48.0 KHz
Frame rate                               : 31.250 fps (1536 spf)
Compression mode                         : Lossy
Stream size                              : 85.1 MiB (5%)
Title                                    : eng
Language                                 : English
Default                                  : Yes
Forced                                   : No
Text
ID                                       : 4
Format                                   : UTF-8
Codec ID                                 : S_TEXT/UTF8
Codec ID/Info                            : UTF-8 Plain Text
Language                                 : English
Default                                  : No
Forced                                   : No

Скриншоты

Внимание! Раздача ведётся путём добавления новых серий

Внимание! Раздача ведётся путём добавления новых серий; при каждом добавлении создаётся новый торрент. Чтобы начать докачку новой серии, пользователям необходимо сделать следующее:
(1) остановить скачивание,
(2) удалить старый торрент у себя из клиента (старые серии удалять не надо),
(3) скачать новый торрент и запустить его у себя в клиенте вместо старого, при этом указать клиенту путь в старую папку куда и должно происходить скачивание новых серий.
Ваш клиент при этом должен произвести хеширование (проверку) старой папки (если не производит сам - помогите ему сделать это), и будет докачивать только те серии которых у вас ещё нет. Старые серии при этом не удаляются, а продолжают раздаваться!
Eсли вы уже удалили старые серии, то предотвратить повторную закачку старых серий можно, отжав галочку в соответствующих местах при запуске нового торрента. По возможности, желательно не удалять старые серии как можно дольше чтобы релизёр не столько продолжал раздавать старые серии, а смог сконцентрироваться на новых.
[freetreker.nl].t508.torrent 
Торрент: Зарегистрирован [ 2018-05-15 06:11 ] · 4E2892BF05E8DD65D98D834E84A56EE652E3A695

Скачать .torrent

Скачать

38 KB

Статус: проверено
Скачан: 0 раз
Размер: 14,77 GB
terms.php
Похожие темы:


Последний раз редактировалось: Grandfather61 (2018-05-15 06:11), всего редактировалось 7 раз(а)
[Профиль] [ЛС]

Grandfather61 ®

Пол: Мужской

Стаж: 1 год 5 месяцев

Сообщений: 641

Создавать темы 15-Май-2018 06:11 (спустя 1 месяц 18 дней)

[Цитировать]

Добавлена 8-я серия. Приятного просмотра!
[Профиль] [ЛС]
Показать сообщения:    
Ответить на тему

Текущее время: 13-Дек 23:29

Часовой пояс: UTC ± 0



Вы не можете начинать темы
Вы не можете отвечать на сообщения
Вы не можете редактировать свои сообщения
Вы не можете удалять свои сообщения
Вы не можете голосовать в опросах
Вы не можете прикреплять файлы к сообщениям
Вы можете скачивать файлы