Лед / Ice [02х01-10 из 10] (2018) WEBRip | OmskBird

Ответить на тему
Статистика раздачи
Размер:  7,05 GB   |    Зарегистрирован:  5 месяцев 27 дней   |    Скачан:  0 раз

Полного источника не было: 5 месяцев 21 день

 
     
 
 
 
Автор Сообщение

Grandfather61 ®

Пол: Мужской

Стаж: 1 год 5 месяцев

Сообщений: 641

Создавать темы 31-Мар-2018 10:22

[Цитировать]


Информация о фильме
Название: Лед
Оригинальное название: Ice
Год выхода: 2018
Жанр: Драма, криминал
Режиссер: Эшли Вэй, Антуан Фукуа, Т.Дж. Скотт
В ролях: Кэм Жиганде, Джереми Систо, Рэй Уинстон, Джудит Шекони, Хлоя Ист, Одри Мари Андерсон, Элла Томас, Константин Лавиш, Дональд Сазерленд, Рэймонд Дж. Бэрри и другие.
О фильме:
В центре истории — единокровные братья Джейк и Фредди, сыновья Айзека Грина, патриарха семьи-владелицы компании G&G Diamonds, занимающейся торговлей алмазами, в том числе и на чёрном рынке Лос-Анджелеса. Когда Фредди по случайности убивает известного торговца бриллиантами, Джейку предстоит спасти от верной смерти брата и семейный бизнес. На пути к цели главному герою предстоит столкнуться с головорезами, грязными сделками, поддельными сертификатами и сотрудниками ФБР.

Страна: США, AT&T, Entertainment One, Fuqua Films
Продолжительность: ~ 00:49:00 серия
Перевод: Любительский (многоголосый закадровый) OmskBird
Файл
Кодек: XviD
Качество: WEBRip
Видео: 720x400, 23.976 fps, ~1783 kbps, 0.26 bit/pixel
Звук:
Аудио rus: AC3, 48 kHz, 2 ch, 192 Kbps | OmskBird
Субтитры: отсутствуют
Реклама: присутствует
Семпл
Ссылка на предыдущие и альтернативные раздачи

MediaInfo

General
Complete name : G:\Films\Ice.S02.WEBRip.OmskBird\Ice.S02E01.WEBRip.OmskBird.avi
Format : AVI
Format/Info : Audio Video Interleave
File size : 706 MiB
Duration : 49mn 42s
Overall bit rate : 1 985 Kbps
Writing application : VirtualDubMod 1.5.10.3 (build 2550/release)
Writing library : VirtualDubMod build 2550/release
Video
ID : 0
Format : MPEG-4 Visual
Format profile : Advanced [email protected]
Format settings, BVOP : 1
Format settings, QPel : No
Format settings, GMC : No warppoints
Format settings, Matrix : Default (MPEG)
Codec ID : XVID
Codec ID/Hint : XviD
Duration : 49mn 42s
Bit rate : 1 784 Kbps
Width : 720 pixels
Height : 400 pixels
Display aspect ratio : 16:9
Frame rate : 23.976 (23976/1000) fps
Color space : YUV
Chroma subsampling : 4:2:0
Bit depth : 8 bits
Scan type : Progressive
Compression mode : Lossy
Bits/(Pixel*Frame) : 0.258
Stream size : 634 MiB (90%)
Writing library : XviD 73
Audio
ID : 1
Format : AC-3
Format/Info : Audio Coding 3
Mode extension : CM (complete main)
Format settings, Endianness : Big
Codec ID : 2000
Duration : 49mn 42s
Bit rate mode : Constant
Bit rate : 192 Kbps
Channel(s) : 2 channels
Channel positions : Front: L R
Sampling rate : 48.0 KHz
Frame rate : 31.250 fps (1536 spf)
Compression mode : Lossy
Stream size : 68.3 MiB (10%)
Alignment : Split accross interleaves
Interleave, duration : 42 ms (1.00 video frame)
Interleave, preload duration : 500 ms

Скриншоты

Внимание! Раздача ведётся путём добавления новых серий.

Внимание! Раздача ведётся путём добавления новых серий; при каждом добавлении создётся новый торрент. Чтобы начать докачку новой серии, пользователям необходимо сделать следующее:
Остановить скачивание.
Удалить старый торрент у себя из клиента (старые серии удалять не надо).
Скачать новый торрент и запустить его у себя в клиенте вместо старого, при этом указать клиенту путь в старую папку куда и должно происходить скачивание новых серий.
Ваш клиент при этом должен произвести хеширование (проверку) старой папки (если не производит сам - помогите ему сделать это), и будет докачивать только те серии которых у вас ещё нет. Старые серии при этом не удаляются, а продолжают раздаваться!
Eсли вы уже удалили старые серии, то предотвратить повторную закачку старых серий можно, отжав галочку в соответсвующих местах при запуске нового торрента. По возможности, желательно не удалять старые серии как можно дольше чтобы релизёр не столько продолжал раздавать старые серии, а смог сконцентрироваться на новых.
Релиз от: OmskBird
[freetreker.nl].t510.torrent 
Торрент: Зарегистрирован [ 2018-06-14 09:07 ] · A9853ABA9489A9AB87EF7E283A5B5065057EE9F4

Скачать .torrent

Скачать

19 KB

Статус: * не проверено
Скачан: 0 раз
Размер: 7,05 GB
terms.php
Похожие темы:


Последний раз редактировалось: Grandfather61 (2018-06-14 09:07), всего редактировалось 8 раз(а)
[Профиль] [ЛС]

Grandfather61 ®

Пол: Мужской

Стаж: 1 год 5 месяцев

Сообщений: 641

Создавать темы 14-Июн-2018 09:08 (спустя 2 месяца 13 дней)

[Цитировать]

10-я серия
[Профиль] [ЛС]
Показать сообщения:    
Ответить на тему

Текущее время: 12-Дек 07:00

Часовой пояс: UTC ± 0



Вы не можете начинать темы
Вы не можете отвечать на сообщения
Вы не можете редактировать свои сообщения
Вы не можете удалять свои сообщения
Вы не можете голосовать в опросах
Вы не можете прикреплять файлы к сообщениям
Вы можете скачивать файлы