Тайная власть / Deep State [01х01-08 из 08] (2018) HDTVRip 720p | OmskBird

Ответить на тему
Статистика раздачи
Размер:  8,95 GB   |    Зарегистрирован:  6 месяцев 16 дней   |    Скачан:  0 раз

Полного источника не было: 5 месяцев 21 день

 
     
 
 
 
Автор Сообщение

Grandfather61 ®

Пол: Мужской

Стаж: 1 год 5 месяцев

Сообщений: 641

Создавать темы 07-Апр-2018 13:10

[Цитировать]


Информация о фильме
Название: Тайная власть
Оригинальное название: Deep State
Год выхода: 2018
Жанр: Драма
Режиссер: Мэттью Паркхилл, Роберт Коннолли
В ролях: Марк Стронг, Джозеф Демпси, Карима Эдебайб, Лайн Рени, Анастасия Гриффит, Алистэр Петри, Амелия Баллмор, Кингсли Бен-Адир, Зубин Варла, Мел Райдо и другие.
О фильме:
Действие сериала развертывается вокруг Макса Истона, бывшего спецагента, вынужденного вернуться на службу, чтобы отомстить за смерть своего сына. Он окажется в самом центре тайной войны, которую ведут спецслужбы, и заговора, нацеленного на то, чтобы извлечь максимальную прибыль от распространения хаоса на Ближнем Востоке. Эта история ставит вопрос, можем ли мы убежать от своего прошлого? Действительно ли существует такая вещь, как второй шанс?

Страна: Великобритания, 6 Degree Media, Endor Productions, Red Arrow International
Продолжительность: ~ 00:51:00 серия
Перевод: Любительский (многоголосый закадровый) OmskBird
Файл
Кодек: MPEG-4 AVC/х.264
Качество: HDTVRip 720p
Видео: 1280x720, 25.000 fps, ~2926 kbps, 0.121 bit/pixel
Звук:
Аудио rus: AC3, 48 kHz, 6 ch, 384 Kbps | OmskBird
Субтитры: отсутствуют
Реклама: присутствует
Семпл
Ссылка на предыдущие и альтернативные раздачи

MediaInfo

General
Unique ID : 185345886636892444535917725423058447100 (0x8B7051BE94F8B8022C9D4E1ABE3A6AFC)
Complete name : G:Deep.State.S01.720p.HDTVRip.OmskBirdDeep.State.S01E01.720p.HDTVRip.OmskBird.mkv
Format : Matroska
Format version : Version 4 / Version 2
File size : 1.14 GiB
Duration : 51mn 13s
Overall bit rate : 3 181 Kbps
Encoded date : UTC 2018-04-07 12:36:45
Writing application : mkvmerge v21.0.0 ('Tardigrades Will Inherit The Earth') 64-bit
Writing library : libebml v1.3.5 + libmatroska v1.4.8
Cover : Yes
Attachments : small_cover.jpg / small_cover_land.jpg / cover.jpg / cover_land.jpg
Video
ID : 1
Format : AVC
Format/Info : Advanced Video Codec
Format profile : [email protected]
Format settings, CABAC : Yes
Format settings, ReFrames : 3 frames
Codec ID : V_MPEG4/ISO/AVC
Duration : 51mn 13s
Bit rate : 2 926 Kbps
Width : 1 280 pixels
Height : 720 pixels
Display aspect ratio : 16:9
Frame rate mode : Constant
Frame rate : 25.000 fps
Standard : PAL
Color space : YUV
Chroma subsampling : 4:2:0
Bit depth : 8 bits
Scan type : Progressive
Bits/(Pixel*Frame) : 0.127
Stream size : 1.05 GiB (92%)
Language : English
Default : Yes
Forced : No
Color range : Limited
Color primaries : BT.709
Transfer characteristics : BT.709
Matrix coefficients : BT.709
Audio
ID : 2
Format : AC-3
Format/Info : Audio Coding 3
Mode extension : CM (complete main)
Format settings, Endianness : Big
Codec ID : A_AC3
Duration : 51mn 13s
Bit rate mode : Constant
Bit rate : 192 Kbps
Channel(s) : 2 channels
Channel positions : Front: L R
Sampling rate : 48.0 KHz
Frame rate : 31.250 fps (1536 spf)
Compression mode : Lossy
Stream size : 70.3 MiB (6%)
Title : OmskBird
Language : Russian
Default : Yes
Forced : No

Скриншоты

Внимание! Раздача ведётся путём добавления новых серий.

Внимание! Раздача ведётся путём добавления новых серий; при каждом добавлении создётся новый торрент. Чтобы начать докачку новой серии, пользователям необходимо сделать следующее:
Остановить скачивание.
Удалить старый торрент у себя из клиента (старые серии удалять не надо).
Скачать новый торрент и запустить его у себя в клиенте вместо старого, при этом указать клиенту путь в старую папку куда и должно происходить скачивание новых серий.
Ваш клиент при этом должен произвести хеширование (проверку) старой папки (если не производит сам - помогите ему сделать это), и будет докачивать только те серии которых у вас ещё нет. Старые серии при этом не удаляются, а продолжают раздаваться!
Eсли вы уже удалили старые серии, то предотвратить повторную закачку старых серий можно, отжав галочку в соответсвующих местах при запуске нового торрента. По возможности, желательно не удалять старые серии как можно дольше чтобы релизёр не столько продолжал раздавать старые серии, а смог сконцентрироваться на новых.
Релиз от: OmskBird
[freetreker.nl].t514.torrent 
Торрент: Зарегистрирован [ 2018-05-27 04:26 ] · 3D48D956457E62028BDAB7A1F4C7786478A4E92A

Скачать .torrent

Скачать

24 KB

Статус: проверено
Скачан: 0 раз
Размер: 8,95 GB
terms.php
Похожие темы:


Последний раз редактировалось: Grandfather61 (2018-05-27 04:26), всего редактировалось 6 раз(а)
[Профиль] [ЛС]

Grandfather61 ®

Пол: Мужской

Стаж: 1 год 5 месяцев

Сообщений: 641

Создавать темы 27-Май-2018 04:26 (спустя 1 месяц 19 дней)

[Цитировать]

Добавлена 8-я серия. Приятного просмотра!
[Профиль] [ЛС]
Показать сообщения:    
Ответить на тему

Текущее время: 12-Дек 07:21

Часовой пояс: UTC ± 0



Вы не можете начинать темы
Вы не можете отвечать на сообщения
Вы не можете редактировать свои сообщения
Вы не можете удалять свои сообщения
Вы не можете голосовать в опросах
Вы не можете прикреплять файлы к сообщениям
Вы можете скачивать файлы