Типа моя жена / Imposters / Сезон 2 / Серии 1-2 (10) (Уэйн Йип, Адам Брукс) [2018, США, драма, комедия, детектив, WEBRip 720p] MVO (OMSKBIRD)

Ответить на тему
Статистика раздачи
Размер:  1,87 GB   |    Зарегистрирован:  6 дней   |    Скачан:  0 раз

Полного источника не было: 5 часов

 
     
 
 
 
Автор Сообщение

Gater ®

Пол: Не указан

Стаж: 9 месяцев 11 дней

Сообщений: 948

Создавать темы 07-Апр-2018 21:09

[Цитировать]

-Типа моя жена / Imposters- Год выпуска • 2018
Страна • США
Жанр • драма, комедия, детектив
Продолжительность • ~44 мин.
Перевод
• Профессиональный (многоголосый, закадровый) "OMSKBIRD records"
-Создатель • Уэйн Йип, Адам Брукс
В ролях • Сэмюэл Патрик Чу, Аарон Дуглас, Меган Парк, Адам Корсон, Частити Дотсон, Джеймс Ральф, Инбар Лави, Питер Бенсон и др.-Описание • В центре истории — ловкая мошенница, зарабатывающая на жизнь тем, что влюбляет в себя и мужчин, и женщин, а потом исчезает навсегда со всеми их сбережениями. Долгое время она и её подельники живут припеваючи, всё сходит им с рук до тех пор, пока три одураченных ими жертвы не объединяются, чтобы выследить и наказать преступников.-Реклама: Присутствует.-
Качество: WEBRip 720p
Формат: MKV
Видео: MPEG-4 AVC / ~ 3000 kbps / 1280х720p / 23.976 fps / 16:9
Аудио:
Русский / Dolby Digital 2.0 / 48 kHz / 192 kbps-
-

Скриншоты

MediaInfo


General
Unique ID : 206853737708296916182381852307547906746 (0x9B9E94AC6E405CB9B62F2A2829A662BA)
Complete name : H:\Мои Документы\Видео\РАЗДАЧИ\ЖЕНА\Imposters S02 WEBRip 720p (OMSKBIRD)\Imposters S02E01 WEBRip 720p (OMSKBIRD).mkv
Format : Matroska
Format version : Version 2
File size : 970 MiB
Duration : 43 min 17 s
Overall bit rate : 3 132 kb/s
Encoded date : UTC 2018-04-07 20:54:43
Writing application : mkvmerge v4.0.0 ('The Stars were mine') сборка от Jun 6 2010 16:18:42
Writing library : libebml v1.0.0 + libmatroska v1.0.0
Video
ID : 1
Format : AVC
Format/Info : Advanced Video Codec
Format profile : Baseline@L3.2
Format settings, CABAC : No
Format settings, RefFrames : 3 frames
Format settings, GOP : M=1, N=23
Codec ID : V_MPEG4/ISO/AVC
Duration : 43 min 17 s
Bit rate : 2 878 kb/s
Width : 1 280 pixels
Height : 720 pixels
Display aspect ratio : 16:9
Frame rate mode : Constant
Frame rate : 23.976 (24000/1001) FPS
Standard : NTSC
Color space : YUV
Chroma subsampling : 4:2:0
Bit depth : 8 bits
Scan type : Progressive
Bits/(Pixel*Frame) : 0.130
Stream size : 891 MiB (92%)
Language : English
Default : Yes
Forced : No
Color range : Limited
Color primaries : BT.709
Transfer characteristics : BT.709
Matrix coefficients : BT.709
Audio
ID : 2
Format : AC-3
Format/Info : Audio Coding 3
Format settings, Endianness : Big
Codec ID : A_AC3
Duration : 43 min 17 s
Bit rate mode : Constant
Bit rate : 192 kb/s
Channel(s) : 2 channels
Channel positions : Front: L R
Sampling rate : 48.0 kHz
Frame rate : 31.250 FPS (1536 SPF)
Bit depth : 16 bits
Compression mode : Lossy
Stream size : 59.4 MiB (6%)
Service kind : Complete Main
Default : Yes
Forced : No

Внимание! Раздача ведётся путём добавления новых серий.

Внимание! Раздача ведётся путём добавления новых серий; при каждом добавлении создётся новый торрент. Чтобы начать докачку новой серии, пользователям необходимо сделать следующее:
Остановить скачивание.
Удалить старый торрент у себя из клиента (старые серии удалять не надо).
Скачать новый торрент и запустить его у себя в клиенте вместо старого, при этом указать клиенту путь в старую папку куда и должно происходить скачивание новых серий.
Ваш клиент при этом должен произвести хеширование (проверку) старой папки (если не производит сам - помогите ему сделать это), и будет докачивать только те серии которых у вас ещё нет. Старые серии при этом не удаляются, а продолжают раздаваться!
Eсли вы уже удалили старые серии, то предотвратить повторную закачку старых серий можно, отжав галочку в соответсвующих местах при запуске нового торрента. По возможности, желательно не удалять старые серии как можно дольше чтобы релизёр не столько продолжал раздавать старые серии, а смог сконцентрироваться на новых.
[freetreker.nl].t518.torrent 
Торрент: Зарегистрирован [ 2018-04-14 20:35 ] · E3679845A7AF59714A707764D1A7DA40AC491443

Скачать .torrent

Скачать

19 KB

Статус: проверено
Скачан: 0 раз
Размер: 1,87 GB
terms.php
Похожие темы:
[Профиль] [ЛС]

Gater ®

Пол: Не указан

Стаж: 9 месяцев 11 дней

Сообщений: 948

Создавать темы 14-Апр-2018 20:35 (спустя 6 дней)

[Цитировать]

Добавлена 2 серия.
[Профиль] [ЛС]
Показать сообщения:    
Ответить на тему

Текущее время: 20-Апр 23:56

Часовой пояс: UTC ± 0



Вы не можете начинать темы
Вы не можете отвечать на сообщения
Вы не можете редактировать свои сообщения
Вы не можете удалять свои сообщения
Вы не можете голосовать в опросах
Вы не можете прикреплять файлы к сообщениям
Вы можете скачивать файлы