Типа моя жена / Imposters / Сезон 2 / Серии 1-2 (10) (Уэйн Йип, Адам Брукс) [2018, США, драма, комедия, детектив, WEBRip] MVO (OMSKBIRD)

Ответить на тему
Статистика раздачи
Размер:  1,18 GB   |    Зарегистрирован:  6 дней   |    Скачан:  0 раз

Полного источника не было: 5 часов

 
     
 
 
 
Автор Сообщение

Gater ®

Пол: Не указан

Стаж: 9 месяцев 11 дней

Сообщений: 948

Создавать темы 07-Апр-2018 21:09

[Цитировать]

-Типа моя жена / Imposters- Год выпуска • 2018
Страна • США
Жанр • драма, комедия, детектив
Продолжительность • ~44 мин.
Перевод
• Профессиональный (многоголосый, закадровый) "OMSKBIRD records"
-Создатель • Уэйн Йип, Адам Брукс
В ролях • Сэмюэл Патрик Чу, Аарон Дуглас, Меган Парк, Адам Корсон, Частити Дотсон, Джеймс Ральф, Инбар Лави, Питер Бенсон и др.-Описание • В центре истории — ловкая мошенница, зарабатывающая на жизнь тем, что влюбляет в себя и мужчин, и женщин, а потом исчезает навсегда со всеми их сбережениями. Долгое время она и её подельники живут припеваючи, всё сходит им с рук до тех пор, пока три одураченных ими жертвы не объединяются, чтобы выследить и наказать преступников.-Реклама: Присутствует.-
Качество: WEBRip
Формат: AVI
Видео: Xvid / ~ 1800 kbps / 720х400p / 23.976 fps / 16:9
Аудио:
Русский / Dolby Digital 2.0 / 48 kHz / 192 kbps-
-

Скриншоты

MediaInfo


General
Complete name : H:\Мои Документы\Видео\РАЗДАЧИ\ЖЕНА\Imposters S02 WEBRip (OMSKBIRD)\Imposters S02E01 WEBRip (OMSKBIRD).avi
Format : AVI
Format/Info : Audio Video Interleave
File size : 614 MiB
Duration : 43 min 17 s
Overall bit rate : 1 983 kb/s
Writing application : VirtualDubMod 1.5.10.3 | www.virtualdub-fr.org || (build 2550/release)
Writing library : VirtualDubMod build 2550/release
Video
ID : 0
Format : MPEG-4 Visual
Format profile : Advanced Simple@L5
Format settings, BVOP : 1
Format settings, QPel : No
Format settings, GMC : No warppoints
Format settings, Matrix : Default (H.263)
Codec ID : XVID
Codec ID/Hint : XviD
Duration : 43 min 17 s
Bit rate : 1 782 kb/s
Width : 720 pixels
Height : 400 pixels
Display aspect ratio : 16:9
Frame rate : 23.976 (24000/1001) FPS
Color space : YUV
Chroma subsampling : 4:2:0
Bit depth : 8 bits
Scan type : Progressive
Compression mode : Lossy
Bits/(Pixel*Frame) : 0.258
Stream size : 552 MiB (90%)
Writing library : XviD 67
Audio
ID : 1
Format : AC-3
Format/Info : Audio Coding 3
Format settings, Endianness : Big
Codec ID : 2000
Duration : 43 min 17 s
Bit rate mode : Constant
Bit rate : 192 kb/s
Channel(s) : 2 channels
Channel positions : Front: L R
Sampling rate : 48.0 kHz
Frame rate : 31.250 FPS (1536 SPF)
Bit depth : 16 bits
Compression mode : Lossy
Stream size : 59.4 MiB (10%)
Alignment : Split accross interleaves
Interleave, duration : 42 ms (1.00 video frame)
Interleave, preload duratio : 500 ms
Service kind : Complete Main

Внимание! Раздача ведётся путём добавления новых серий.

Внимание! Раздача ведётся путём добавления новых серий; при каждом добавлении создётся новый торрент. Чтобы начать докачку новой серии, пользователям необходимо сделать следующее:
Остановить скачивание.
Удалить старый торрент у себя из клиента (старые серии удалять не надо).
Скачать новый торрент и запустить его у себя в клиенте вместо старого, при этом указать клиенту путь в старую папку куда и должно происходить скачивание новых серий.
Ваш клиент при этом должен произвести хеширование (проверку) старой папки (если не производит сам - помогите ему сделать это), и будет докачивать только те серии которых у вас ещё нет. Старые серии при этом не удаляются, а продолжают раздаваться!
Eсли вы уже удалили старые серии, то предотвратить повторную закачку старых серий можно, отжав галочку в соответсвующих местах при запуске нового торрента. По возможности, желательно не удалять старые серии как можно дольше чтобы релизёр не столько продолжал раздавать старые серии, а смог сконцентрироваться на новых.
[freetreker.nl].t519.torrent 
Торрент: Зарегистрирован [ 2018-04-14 20:35 ] · BE23A782F55BCE8362F527700E6DDD9B754054F6

Скачать .torrent

Скачать

12 KB

Статус: проверено
Скачан: 0 раз
Размер: 1,18 GB
terms.php
Похожие темы:
[Профиль] [ЛС]

Gater ®

Пол: Не указан

Стаж: 9 месяцев 11 дней

Сообщений: 948

Создавать темы 14-Апр-2018 20:35 (спустя 6 дней)

[Цитировать]

Добавлена 2 серия.
[Профиль] [ЛС]
Показать сообщения:    
Ответить на тему

Текущее время: 21-Апр 00:07

Часовой пояс: UTC ± 0



Вы не можете начинать темы
Вы не можете отвечать на сообщения
Вы не можете редактировать свои сообщения
Вы не можете удалять свои сообщения
Вы не можете голосовать в опросах
Вы не можете прикреплять файлы к сообщениям
Вы можете скачивать файлы