Типа моя жена / Imposters / Сезон 2 / Серии 1-10 (10) (Уэйн Йип, Адам Брукс) [2018, США, драма, комедия, детектив, WEBRip] MVO (OMSKBIRD)

Ответить на тему
Статистика раздачи
Размер:  5,93 GB   |    Зарегистрирован:  3 месяца 10 дней   |    Скачан:  0 раз

Полного источника не было: 1 месяц 24 дня

 
     
 
 
 
Автор Сообщение

Gater ®

Пол: Не указан

Стаж: 1 год 2 месяца

Сообщений: 1375

Создавать темы 07-Апр-2018 21:09

[Цитировать]

-Типа моя жена / Imposters- Год выпуска • 2018
Страна • США
Жанр • драма, комедия, детектив
Продолжительность • ~44 мин.
Перевод
• Профессиональный (многоголосый, закадровый) "OMSKBIRD records"
-Создатель • Уэйн Йип, Адам Брукс
В ролях • Сэмюэл Патрик Чу, Аарон Дуглас, Меган Парк, Адам Корсон, Частити Дотсон, Джеймс Ральф, Инбар Лави, Питер Бенсон и др.-Описание • В центре истории — ловкая мошенница, зарабатывающая на жизнь тем, что влюбляет в себя и мужчин, и женщин, а потом исчезает навсегда со всеми их сбережениями. Долгое время она и её подельники живут припеваючи, всё сходит им с рук до тех пор, пока три одураченных ими жертвы не объединяются, чтобы выследить и наказать преступников.-Реклама: Присутствует.-
Качество: WEBRip
Формат: AVI
Видео: Xvid / ~ 1800 kbps / 720х400p / 23.976 fps / 16:9
Аудио:
Русский / Dolby Digital 2.0 / 48 kHz / 192 kbps-
-

Скриншоты

MediaInfo


General
Complete name : H:\Мои Документы\Видео\РАЗДАЧИ\ЖЕНА\Imposters S02 WEBRip (OMSKBIRD)\Imposters S02E01 WEBRip (OMSKBIRD).avi
Format : AVI
Format/Info : Audio Video Interleave
File size : 614 MiB
Duration : 43 min 17 s
Overall bit rate : 1 983 kb/s
Writing application : VirtualDubMod 1.5.10.3 | www.virtualdub-fr.org || (build 2550/release)
Writing library : VirtualDubMod build 2550/release
Video
ID : 0
Format : MPEG-4 Visual
Format profile : Advanced Simple@L5
Format settings, BVOP : 1
Format settings, QPel : No
Format settings, GMC : No warppoints
Format settings, Matrix : Default (H.263)
Codec ID : XVID
Codec ID/Hint : XviD
Duration : 43 min 17 s
Bit rate : 1 782 kb/s
Width : 720 pixels
Height : 400 pixels
Display aspect ratio : 16:9
Frame rate : 23.976 (24000/1001) FPS
Color space : YUV
Chroma subsampling : 4:2:0
Bit depth : 8 bits
Scan type : Progressive
Compression mode : Lossy
Bits/(Pixel*Frame) : 0.258
Stream size : 552 MiB (90%)
Writing library : XviD 67
Audio
ID : 1
Format : AC-3
Format/Info : Audio Coding 3
Format settings, Endianness : Big
Codec ID : 2000
Duration : 43 min 17 s
Bit rate mode : Constant
Bit rate : 192 kb/s
Channel(s) : 2 channels
Channel positions : Front: L R
Sampling rate : 48.0 kHz
Frame rate : 31.250 FPS (1536 SPF)
Bit depth : 16 bits
Compression mode : Lossy
Stream size : 59.4 MiB (10%)
Alignment : Split accross interleaves
Interleave, duration : 42 ms (1.00 video frame)
Interleave, preload duratio : 500 ms
Service kind : Complete Main
[freetreker.nl].t519.torrent 
Торрент: Зарегистрирован [ 2018-06-09 11:17 ] · C7BCA1B7A29C1CC9C90446A975D19B06973A1887

Скачать .torrent

Скачать

16 KB

Статус: проверено
Скачан: 0 раз
Размер: 5,93 GB
terms.php
Похожие темы:


Последний раз редактировалось: Gater (2018-06-09 11:17), всего редактировалось 8 раз(а)
[Профиль] [ЛС]

Gater ®

Пол: Не указан

Стаж: 1 год 2 месяца

Сообщений: 1375

Создавать темы 14-Апр-2018 20:35 (спустя 6 дней)

[Цитировать]

Добавлена 2 серия.
[Профиль] [ЛС]

Gater ®

Пол: Не указан

Стаж: 1 год 2 месяца

Сообщений: 1375

Создавать темы 21-Апр-2018 14:40 (спустя 6 дней)

[Цитировать]

Добавлена 3 серия.
[Профиль] [ЛС]

Gater ®

Пол: Не указан

Стаж: 1 год 2 месяца

Сообщений: 1375

Создавать темы 29-Апр-2018 09:04 (спустя 7 дней)

[Цитировать]

Добавлена 4 серия.
[Профиль] [ЛС]

Gater ®

Пол: Не указан

Стаж: 1 год 2 месяца

Сообщений: 1375

Создавать темы 05-Май-2018 20:39 (спустя 6 дней)

[Цитировать]

Добавлена 5 серия.
[Профиль] [ЛС]

Gater ®

Пол: Не указан

Стаж: 1 год 2 месяца

Сообщений: 1375

Создавать темы 12-Май-2018 13:55 (спустя 6 дней)

[Цитировать]

Добавлена 6 серия.
[Профиль] [ЛС]

Gater ®

Пол: Не указан

Стаж: 1 год 2 месяца

Сообщений: 1375

Создавать темы 19-Май-2018 14:13 (спустя 7 дней)

[Цитировать]

Добавлена 7 серия.
[Профиль] [ЛС]

Gater ®

Пол: Не указан

Стаж: 1 год 2 месяца

Сообщений: 1375

Создавать темы 26-Май-2018 11:27 (спустя 6 дней)

[Цитировать]

Добавлена 8 серия.
[Профиль] [ЛС]

Gater ®

Пол: Не указан

Стаж: 1 год 2 месяца

Сообщений: 1375

Создавать темы 02-Июн-2018 10:45 (спустя 6 дней)

[Цитировать]

Добавлена 9 серия.
[Профиль] [ЛС]

Gater ®

Пол: Не указан

Стаж: 1 год 2 месяца

Сообщений: 1375

Создавать темы 09-Июн-2018 11:19 (спустя 7 дней)

[Цитировать]

Добавлена 10 серия.
Финал.
[Профиль] [ЛС]
Показать сообщения:    
Ответить на тему

Текущее время: 19-Сен 14:26

Часовой пояс: UTC ± 0



Вы не можете начинать темы
Вы не можете отвечать на сообщения
Вы не можете редактировать свои сообщения
Вы не можете удалять свои сообщения
Вы не можете голосовать в опросах
Вы не можете прикреплять файлы к сообщениям
Вы можете скачивать файлы