Убивая Еву / Killing Eve / Сезон 1 / Серии 1-8 (8) (Фиби Уоллер-Бридж) [2018, США, триллер, комедия, WEBRip] MVO (OMSKBIRD)

Ответить на тему
Статистика раздачи
Размер:  4,71 GB   |    Зарегистрирован:  1 месяц 21 день   |    Скачан:  0 раз
Сидов:  3  [  0 KB/s  ]   Подробная статистика пиров
 
     
 
 
Автор Сообщение

Gater ®

Пол: Не указан

Стаж: 1 год

Сообщений: 1152

Создавать темы 09-Апр-2018 13:42

[Цитировать]

-Убивая Еву / Killing Eve- Год выпуска • 2018
Страна • США
Жанр • триллер, комедия
Продолжительность • ~44 мин.
Перевод
• Профессиональный (многоголосый, закадровый) "OMSKBIRD records"
-Создатель • Фиби Уоллер-Бридж
В ролях • Джоди Комер, Сандра О, Фиона Шоу, Оуэн Макдоннелл, Ким Бодниа, Кирби Хауэлл-Баптисте, Даррен Бойд, Хелена Холмс, Дэвид Агранов, Мэри Энтони и др.-Описание • Проект, в основу которого легли романы Люка Дженнингса, повествует о наёмной убийце-психопатке Вилланелле и охотящейся на неё Еве — сотруднице службы безопасности, давно мечтавшей поменять бумажную работу на оперативную. Так начинается смертельно опасная, полная юмора и экшена игра в кошки-мышки между элегантной, талантливой убийцей и смышлёной оперативницей — обе женщины равно умны и одинаково одержимы друг другом.-Реклама: Присутствует.-
Качество: WEBRip
Формат: AVI
Видео: Xvid / ~ 1800 kbps / 720х400p / 23.976 fps / 16:9
Аудио:
Русский / Dolby Digital 2.0 / 48 kHz / 192 kbps-
-

Скриншоты

MediaInfo


General
Complete name : H:\Мои Документы\Видео\РАЗДАЧИ\ЕВА\Killing Eve S01 WEBRip (OMSKBIRD)\Killing Eve S01E01 WEBRip (OMSKBIRD).avi
Format : AVI
Format/Info : Audio Video Interleave
File size : 607 MiB
Duration : 42 min 44 s
Overall bit rate : 1 986 kb/s
Writing application : VirtualDubMod 1.5.10.3 | www.virtualdub-fr.org || (build 2550/release)
Writing library : VirtualDubMod build 2550/release
Video
ID : 0
Format : MPEG-4 Visual
Format profile : Advanced Simple@L5
Format settings, BVOP : 1
Format settings, QPel : No
Format settings, GMC : No warppoints
Format settings, Matrix : Default (H.263)
Codec ID : XVID
Codec ID/Hint : XviD
Duration : 42 min 44 s
Bit rate : 1 784 kb/s
Width : 720 pixels
Height : 400 pixels
Display aspect ratio : 16:9
Frame rate : 23.976 (24000/1001) FPS
Color space : YUV
Chroma subsampling : 4:2:0
Bit depth : 8 bits
Scan type : Progressive
Compression mode : Lossy
Bits/(Pixel*Frame) : 0.258
Stream size : 545 MiB (90%)
Writing library : XviD 67
Audio
ID : 1
Format : AC-3
Format/Info : Audio Coding 3
Format settings, Endianness : Big
Codec ID : 2000
Duration : 42 min 44 s
Bit rate mode : Constant
Bit rate : 192 kb/s
Channel(s) : 2 channels
Channel positions : Front: L R
Sampling rate : 48.0 kHz
Frame rate : 31.250 FPS (1536 SPF)
Bit depth : 16 bits
Compression mode : Lossy
Stream size : 58.7 MiB (10%)
Alignment : Split accross interleaves
Interleave, duration : 42 ms (1.00 video frame)
Interleave, preload duratio : 500 ms
Service kind : Complete Main
[freetreker.nl].t523.torrent 
Торрент: Зарегистрирован [ 2018-05-29 10:41 ] · 40D1E8729CB65DAA97A48E7364B37FFB257C7DD1

Скачать .torrent

Скачать

13 KB

Статус: проверено
Скачан: 0 раз
Размер: 4,71 GB
terms.php
Похожие темы:


Последний раз редактировалось: Gater (2018-05-29 10:41), всего редактировалось 7 раз(а)
[Профиль] [ЛС]

Gater ®

Пол: Не указан

Стаж: 1 год

Сообщений: 1152

Создавать темы 16-Апр-2018 20:51 (спустя 7 дней)

[Цитировать]

Добавлена 2 серия.
[Профиль] [ЛС]

Gater ®

Пол: Не указан

Стаж: 1 год

Сообщений: 1152

Создавать темы 24-Апр-2018 09:36 (спустя 7 дней)

[Цитировать]

Добавлена 3 серия.
[Профиль] [ЛС]

Gater ®

Пол: Не указан

Стаж: 1 год

Сообщений: 1152

Создавать темы 01-Май-2018 15:20 (спустя 7 дней)

[Цитировать]

Добавлена 4 серия.
[Профиль] [ЛС]

Gater ®

Пол: Не указан

Стаж: 1 год

Сообщений: 1152

Создавать темы 08-Май-2018 09:42 (спустя 6 дней)

[Цитировать]

Добавлена 5 серия.
[Профиль] [ЛС]

Gater ®

Пол: Не указан

Стаж: 1 год

Сообщений: 1152

Создавать темы 15-Май-2018 15:01 (спустя 7 дней)

[Цитировать]

Добавлена 6 серия.
[Профиль] [ЛС]

Gater ®

Пол: Не указан

Стаж: 1 год

Сообщений: 1152

Создавать темы 22-Май-2018 10:33 (спустя 6 дней)

[Цитировать]

Добавлена 7 серия.
[Профиль] [ЛС]

Gater ®

Пол: Не указан

Стаж: 1 год

Сообщений: 1152

Создавать темы 29-Май-2018 10:44 (спустя 7 дней)

[Цитировать]

Добавлена 8 серия.
Финал сезона.
[Профиль] [ЛС]
Показать сообщения:    
Ответить на тему

Текущее время: 19-Июл 19:23

Часовой пояс: UTC ± 0



Вы не можете начинать темы
Вы не можете отвечать на сообщения
Вы не можете редактировать свои сообщения
Вы не можете удалять свои сообщения
Вы не можете голосовать в опросах
Вы не можете прикреплять файлы к сообщениям
Вы можете скачивать файлы