Затерянные в космосе / Lost in Space / Сезон 1 / Серии 1-10 (10) (Ирвин Аллен) [2018, США, фантастика, WEBRip 1080p] MVO (OMSKBIRD) Original + Eng Subs

Ответить на тему
Статистика раздачи
Размер:  15,24 GB   |    Зарегистрирован:  8 месяцев 1 день   |    Скачан:  3 раза

Полного источника не было: 1 месяц 18 дней

 
     
 
 
 
Автор Сообщение

Gater ®

Пол: Не указан

Стаж: 1 год 5 месяцев

Сообщений: 1582

Создавать темы 14-Апр-2018 17:08

[Цитировать]

-Затерянные в космосе / Lost in Space- Год выпуска • 2018
Страна • США
Жанр • фантастика
Продолжительность • ~60 мин.
Перевод
• Профессиональный (многоголосый, закадровый) "OMSKBIRD records"
-Создатель • Ирвин Аллен, Мэтт Сазама
В ролях • Молли Паркер, Тоби Стивенс, Паркер Поузи, Игнасио Серричио, Раза Джеффри, Адам Рейд, Кики Сукизейн, Сибо Мламбо и др.-Описание • 2046 год. Космический корабль теряется в космосе и терпит крушение на планете на расстоянии нескольких световых лет от планируемого места назначения. Его обитатели, семья Робинсонов, вынуждены приспособиться и выжить в новых условиях.-Реклама: Присутствует.-
Качество: Netflix WEBRip 1080p
Формат: MKV
Видео: MPEG-4 AVC / ~ 4000 kbps / 1920х1080p / 23.976 fps / 16:9 / ~ 0.070 bit/pixel / Main Level 4.0
Аудио:
Русский / Dolby Digital 5.1 / 48 kHz / 384 kbps
English / Dolby Digital 5.1 / 48 kHz / 384 kbps
Субтитры: Eng / SRT-
-

Скриншоты

MediaInfo


General
Unique ID : 204772977251379824379909105728358327309 (0x9A0DD743306F908081A40120591E240D)
Complete name : H:\Мои Документы\Видео\РАЗДАЧИ\ЗАТЕРЯННЫЕ\Lost in Space S01 WEBRip 1080p (OMSKBIRD)\Lost in Space S01E01 WEBRip 1080p (OMSKBIRD).mkv
Format : Matroska
Format version : Version 2
File size : 1.91 GiB
Duration : 1 h 3 min
Overall bit rate mode : Variable
Overall bit rate : 4 290 kb/s
Encoded date : UTC 2018-04-14 16:40:02
Writing application : mkvmerge v4.0.0 ('The Stars were mine') сборка от Jun 6 2010 16:18:42
Writing library : libebml v1.0.0 + libmatroska v1.0.0
Video
ID : 1
Format : AVC
Format/Info : Advanced Video Codec
Format profile : [email protected]
Format settings, CABAC : Yes
Format settings, RefFrames : 3 frames
Codec ID : V_MPEG4/ISO/AVC
Duration : 1 h 3 min
Bit rate mode : Variable
Bit rate : 3 437 kb/s
Nominal bit rate : 3 650 kb/s
Maximum bit rate : 5 475 kb/s
Width : 1 920 pixels
Height : 1 080 pixels
Display aspect ratio : 16:9
Frame rate mode : Constant
Frame rate : 23.976 (24000/1001) FPS
Color space : YUV
Chroma subsampling : 4:2:0
Bit depth : 8 bits
Scan type : Progressive
Bits/(Pixel*Frame) : 0.069
Stream size : 1.53 GiB (80%)
Writing library : x264 core 148 r2715 7e75228
Encoding settings : cabac=1 / ref=3 / deblock=1:0:0 / analyse=0x1:0x111 / me=umh / subme=10 / psy=1 / psy_rd=1.00:0.00 / mixed_ref=1 / me_range=24 / chroma_me=1 / trellis=2 / 8x8dct=0 / cqm=0 / deadzone=21,11 / fast_pskip=1 / chroma_qp_offset=-2 / threads=8 / lookahead_threads=1 / sliced_threads=0 / nr=0 / decimate=1 / interlaced=0 / bluray_compat=0 / stitchable=1 / constrained_intra=0 / bframes=2 / b_pyramid=0 / b_adapt=2 / b_bias=0 / direct=3 / weightb=1 / open_gop=0 / weightp=2 / keyint=48 / keyint_min=25 / scenecut=0 / intra_refresh=0 / rc_lookahead=48 / rc=2pass / mbtree=1 / bitrate=3650 / ratetol=1.0 / qcomp=0.50 / qpmin=6 / qpmax=51 / qpstep=4 / cplxblur=20.0 / qblur=0.5 / vbv_maxrate=5475 / vbv_bufsize=7300 / nal_hrd=vbr / filler=0 / ip_ratio=1.40 / aq=1:1.00
Default : No
Forced : No
Audio #1
ID : 2
Format : AC-3
Format/Info : Audio Coding 3
Format settings, Endianness : Big
Codec ID : A_AC3
Duration : 1 h 3 min
Bit rate mode : Constant
Bit rate : 384 kb/s
Channel(s) : 6 channels
Channel positions : Front: L C R, Side: L R, LFE
Sampling rate : 48.0 kHz
Frame rate : 31.250 FPS (1536 SPF)
Bit depth : 16 bits
Compression mode : Lossy
Stream size : 175 MiB (9%)
Language : Russian
Service kind : Complete Main
Default : Yes
Forced : No
Audio #2
ID : 3
Format : AC-3
Format/Info : Audio Coding 3
Format settings, Endianness : Big
Codec ID : A_AC3
Duration : 1 h 3 min
Bit rate mode : Constant
Bit rate : 384 kb/s
Channel(s) : 6 channels
Channel positions : Front: L C R, Side: L R, LFE
Sampling rate : 48.0 kHz
Frame rate : 31.250 FPS (1536 SPF)
Bit depth : 16 bits
Compression mode : Lossy
Stream size : 175 MiB (9%)
Language : English
Service kind : Complete Main
Default : No
Forced : No
Text
ID : 4
Format : UTF-8
Codec ID : S_TEXT/UTF8
Codec ID/Info : UTF-8 Plain Text
Language : English
Default : No
Forced : No
[freetreker.nl].t527.torrent 
Торрент: Зарегистрирован [ 2018-04-17 17:55 ] · 5A512EB9427B398DDD1713B484D4B38CA0083794

Скачать .torrent

Скачать

39 KB

Статус: проверено
Скачан: 3 раз
Размер: 15,24 GB
terms.php
Похожие темы:


Последний раз редактировалось: Gater (2018-04-17 17:55), всего редактировалось 1 раз
[Профиль] [ЛС]

Gater ®

Пол: Не указан

Стаж: 1 год 5 месяцев

Сообщений: 1582

Создавать темы 15-Апр-2018 17:32 (спустя 1 день)

[Цитировать]

Добавлена 4-5 серия.
[Профиль] [ЛС]

Gater ®

Пол: Не указан

Стаж: 1 год 5 месяцев

Сообщений: 1582

Создавать темы 17-Апр-2018 18:00 (спустя 2 дня)

[Цитировать]

Добавлена 6-10 серия.
Сезон полностью.
[Профиль] [ЛС]
Показать сообщения:    
Ответить на тему

Текущее время: 19-Дек 03:01

Часовой пояс: UTC ± 0



Вы не можете начинать темы
Вы не можете отвечать на сообщения
Вы не можете редактировать свои сообщения
Вы не можете удалять свои сообщения
Вы не можете голосовать в опросах
Вы не можете прикреплять файлы к сообщениям
Вы можете скачивать файлы